Уважаемый Гость!
Вы можете поддержать проект и зарегистрироваться у наших партнеров - онлайн-стратегия MyLands. При регистрации в игре Вы получите код, который сможете активировать после регистрации на pirat.ca и получить 1000 дублонов.

Ваш код:
269c33af571d9140442bf2c089ea007adc65586e
 
     

Секретная папка Сезон: 1 / Серии: 1-19из19 (Сергей Мерзляков) [2016 г., Документальный, SATRip]

Ответить на тему
 
Автор
Сообщение

Пост 13-Окт-2017 14:38

[Q] 

dimas1000

Штурман

- Секретная папка (1 сезон: 1-19 из19)-- Производство: Россия
Жанр: Документальный
Год выпуска: 2016 г.
Продолжительность: 00:38:00
Перевод: Не требуется
Режиссёр: Сергей Мерзляков-Описание: История полна загадочных событий, нераскрытых дел, запутанных обстоятельств. Что стоит за блистательными победами и великими свершениями? Кто скрывается за тайными заговорами и сокрушительными поражениями? Неизвестные подробности, удивительные факты, достоверные источники – всё это хранится в его «Секретной папке».-Качество видео: SATRip
Контейнер: AVI
Видео кодек: XviD
Аудио кодек: AC3
Видео: MPEG-4 XviD, (720x448),1600 Кбит/с, 25.000 кадра/сек
Аудио: AC3, 2 ch,192 kbps (Rus) 48.0 KHz Русский
Cубтитры: отсутствуют
Тип потока: Видео
Длительность: 00:38:22
Кодек: MPEG-4 Visual
Кодек/профиль: Advanced [email protected]
Кодек/ID: XVID
Размеры изображения: 720 x 448 (16:10)
Частота кадров: 25.000 fps
Размер потока: 439 MiB (89%)
Битрейт: 1 598 Kbps
Метод сжатия: Lossy
Библиотека кодирования: XviD 73
Цветовое пространство: YUV
Тип развёртки: Progressive
Колориметрия: 4:2:0
Глубина: 8 bits
:
Тип потока: Звук #1
Длительность: 00:38:22.000
Кодек: AC-3
Кодек/описание: Audio Coding 3
Кодек/ID: 2000
Частота дискретизации: 48.0 KHz
Каналов: 2 channels
Битрейт: 192 Kbps
Битрейт/тип: Constant
Размер потока: 52.7 MiB (11%)
Глубина: 16 bits
Метод сжатия: Lossy
Download / Скачать

Хотите скачать бесплатно? Зарегистрируйтесь на сайте (ссылка на регистрацию). Pirat.ca - самый быстрый торрент трекер в рунете!

Как скачивать  ·   Что такое торрент  ·   Рейтинг и ограничения

Константин 1

Лоцман

Пост 13-Окт-2017 17:54 (спустя 3 часа)

[Q] 

где раздача?
[Профиль]  [ЛС] 

dimas1000 ®

Штурман

269

Пост 14-Окт-2017 02:04 (спустя 8 часов)

[Q] 

стаю на роздаче
[Профиль]  [ЛС] 
Показать сообщения:    
Ответить на тему

Текущее время: Сегодня 08:45

Часовой пояс: GMT + 4



Вы не можете начинать темы
Вы не можете отвечать на сообщения
Вы не можете редактировать свои сообщения
Вы не можете удалять свои сообщения
Вы не можете голосовать в опросах
Вы не можете прикреплять файлы к сообщениям
Вы не можете скачивать файлы

▼ Вниз