Уважаемый Гость!
Вы можете поддержать проект и зарегистрироваться у наших партнеров - онлайн-стратегия MyLands. При регистрации в игре Вы получите код, который сможете активировать после регистрации на pirat.ca и получить 1000 дублонов.

Ваш код:
6ce94c87b14c77f4c9d9415fb160accb369c92d9
 
     

Звёздные войны: Повстанцы / Star Wars Rebels / Сезон 4 / Cерии: 1-8 из 19 (Дэйв Филони / Dave Filoni) [2016 г., мультфильм, фантастика, боевик, приключения, WEB-DL 1080р] MVO (LostFilm) + Original (Eng) (обновляемая)

Ответить на тему
 
Автор
Сообщение

Пост 22-Окт-2017 18:45

[Q] 

kugesan

Звёздные войны: Повстанцы
Star Wars Rebels
«Their greatest strength will be each other»- Страна: США
Год выпуска: 2016
Жанр: мультфильм, фантастика, фэнтези, боевик, приключения, ...
Продолжительность: ~ 00:43:00 мин серия-Премьера (мир): 26 сентября 2014, ...
Премьера (РФ): 25 декабря 2014
Релиз на DVD: 27 января 2015, «Уолт Дисней Компани СНГ», «Lizard Cinema Trade», ...-Озвучка: Студия
Перевод: Многоголосый закадровый, профессиональный-Режиссер: Дэйв Филони / Dave Filoni, Стюарт Ли / Steward Lee, Боско ЭнДжи / Bosco Ng, ...
В главных ролях: Фредди Принц-младший (Кейнан Джаррус), Тейлор Грэй (Эзра Бриджер), Стивен Блум (Зеб Ореллиос), Тия Сиркар (Сабина Рен), Ванесса Маршалл (Гера Синдулла), Дэвид Ойелово (агент Каллус), Джейсон Айзекс (Инквизитор)-Описание фильма:
Миновало 14 лет с того момента, как канцлер Палпатин отдал "Приказ 66", спровоцировавший Великое истребление джедаев. Кейнан Джаррус, один из последних адептов светлой стороны Силы, вынужден объединить усилия с молодым воришкой, опытным головорезом, экспертом по взрывчатке, ворчливым дроидом и пилотом космического корабля «Призрак» в борьбе против Империи. Группе изгоев предстоит стать новой надеждой жителей галактики и дать отпор Инквизитору, идущему по пятам последних представителей Ордена джедаев.-
Качество видео: WEB-DL 1080p
Контейнер: MKV
Видео кодек: AVC ([email protected])
Аудио кодек: AC-3
Видео: AVC at 5242 Кбит/сек: 1920 x 1080 (1.778) at 23.976 fps
Аудио Rus: AC-3 at 384 Кбит/сек: 2 канала, 48,0 КГц |LostFilm|
Аудио Eng: AC-3 at 384 Кбит/сек: 2 канала, 48,0 КГц |Original|
- -
  • Герои Мандалора. Часть 1
  • Герои Мандалора. Часть 2
  • Во имя Восстания. Часть 1
  • Во имя Восстания. Часть 2
  • Оккупация
  • Полет Защитника
  • Сродство душ
  • Командиры краулера
-
Общее
Уникальный идентификатор : 203994568335383442705014934405442063523 (0x9977ECBD6540F06FB1A9209F0CF24CA3)
Полное имя : E:\_Сериалы\_Сериалы\Звёздные войны Повстанцы\Star.Wars.Rebels.S04.1080p.rus.LostFilm\Star.Wars.Rebels.S04E01.1080p.rus.LostFilm.TV.mkv
Формат : Matroska
Версия формата : Version 4 / Version 2
Размер файла : 935 Мбайт
Продолжительность : 21 м. 46 с.
Общий поток : 6007 Кбит/сек
Дата кодирования : UTC 2017-10-21 13:24:46
Программа кодирования : mkvmerge v7.7.0 ('Six Voices') 64bit built on Feb 28 2015 23:39:33
Библиотека кодирования : libebml v1.3.1 + libmatroska v1.4.2
Видео
Идентификатор : 1
Формат : AVC
Формат/Информация : Advanced Video Codec
Профиль формата : [email protected]
Настройки формата : CABAC / 4 Ref Frames
Параметр CABAC формата : Да
Параметр RefFrames формата : 4 кадра
Идентификатор кодека : V_MPEG4/ISO/AVC
Продолжительность : 21 м. 46 с.
Битрейт : 5242 Кбит/сек
Ширина : 1920 пикселей
Высота : 1080 пикселей
Соотношение сторон : 16:9
Режим частоты кадров : Постоянный
Частота кадров : 23,976 (24000/1001) кадра/сек
Частота кадров в оригинале : 23,976 (23976/1000) кадра/сек
Цветовое пространство : YUV
Субдискретизация насыщенности : 4:2:0
Битовая глубина : 8 бит
Тип развёртки : Прогрессивная
Бит/(Пиксели*Кадры) : 0.105
Размер потока : 815 Мбайт (87%)
Библиотека кодирования : x264 core 112 r1834 a51816a
Настройки программы : cabac=1 / ref=4 / deblock=1:-3:-2 / analyse=0x3:0x113 / me=hex / subme=7 / psy=1 / psy_rd=1.00:0.00 / mixed_ref=1 / me_range=16 / chroma_me=1 / trellis=1 / 8x8dct=1 / cqm=0 / deadzone=21,11 / fast_pskip=1 / chroma_qp_offset=-2 / threads=12 / sliced_threads=0 / nr=0 / decimate=1 / interlaced=0 / constrained_intra=0 / bframes=5 / b_pyramid=2 / b_adapt=1 / b_bias=0 / direct=1 / weightb=1 / open_gop=0 / weightp=2 / keyint=250 / keyint_min=25 / scenecut=40 / intra_refresh=0 / rc_lookahead=40 / rc=2pass / mbtree=1 / bitrate=5242 / ratetol=1.0 / qcomp=0.60 / qpmin=0 / qpmax=51 / qpstep=4 / cplxblur=20.0 / qblur=0.5 / vbv_maxrate=10000 / vbv_bufsize=256000 / ip_ratio=1.40 / aq=1:1.00 / nal_hrd=none
Default : Да
Forced : Нет
Аудио #1
Идентификатор : 2
Формат : AC-3
Формат/Информация : Audio Coding 3
Параметр Endianness формата : Big
Идентификатор кодека : A_AC3
Продолжительность : 21 м. 45 с.
Вид битрейта : Постоянный
Битрейт : 384 Кбит/сек
Каналы : 2 канала
Расположение каналов : Front: L R
Частота : 48,0 КГц
Частота кадров : 31,250 кадров/сек (1536 SPF)
Битовая глубина : 16 бит
Метод сжатия : С потерями
Размер потока : 59,8 Мбайт (6%)
ServiceKind/String : Complete Main
Default : Да
Forced : Нет
Аудио #2
Идентификатор : 3
Формат : AC-3
Формат/Информация : Audio Coding 3
Параметр Endianness формата : Big
Идентификатор кодека : A_AC3
Продолжительность : 21 м. 46 с.
Вид битрейта : Постоянный
Битрейт : 384 Кбит/сек
Каналы : 2 канала
Расположение каналов : Front: L R
Частота : 48,0 КГц
Частота кадров : 31,250 кадров/сек (1536 SPF)
Битовая глубина : 16 бит
Метод сжатия : С потерями
Размер потока : 59,8 Мбайт (6%)
ServiceKind/String : Complete Main
Default : Нет
Forced : Нет
-
-Скриншоты:
-
Раздача ведётся путём добавления новых серий; при каждом добавлении создаётся новый торрент.
Чтобы начать докачку новой серии, пользователям необходимо сделать следующее:
1. остановить скачивание,
2. удалить старый торрент у себя из клиента (старые серии удалять не надо),
3. скачать новый торрент и запустить его у себя в клиенте вместо старого, при этом указать клиенту путь в старую папку, куда и должно происходить скачивание новых серий.
Ваш клиент при этом должен произвести хеширование (проверку) старой папки (если не производит сам - помогите ему сделать это), и будет докачивать только те серии которых у вас ещё нет. Старые серии при этом не удаляются, а продолжают раздаваться!
Eсли вы уже удалили старые серии, то предотвратить повторную закачку старых серий можно, отжав галочку в соответствующих местах при запуске нового торрента. По возможности, желательно не удалять старые серии как можно дольше, чтобы релизёр не столько продолжал раздавать старые серии, а смог сконцентрироваться на новых.
Совет для тех, кто не хочет ждать перехеширования:
Создайте ещё одну папку рядом с папкой сериала (рядом, а не в ней!!!). Каждую новую серию после удачной загрузки копируйте в новую папку так чтобы ваша основная папка всегда была пуста. Когда ваш новый торрент предложит вам закачать все файлы, выберете только последнюю. Для сидирования же укажите адрес новой папки.
Как закачать отдельный файл из торрента или докачать ранее пропущенные файлы торрента!
-
1. Открыть торрент
2. Снять галки с тех файлов торрента, которые мы не хотим закачивать. Оставляем только на нужных нам файлах (файле).
3. Нажать О.К.
В клиенте utorrent
Инструкция
1) Открыть торрент

2) Снять галки с тех файлов торрента, которые мы не хотим закачивать:
* либо вручную, снимая с каждого файла галку( скрин №1)
* либо, нажав кнопку "Снять метки (Select None)", сняв сразу со всех файлов(скрин №2)
№1

№2

Оставляем только на нужных нам файлах (файле).

3)Нажать О.К
-Приятного просмотра!!!-
Download / Скачать

Хотите скачать бесплатно? Зарегистрируйтесь на сайте (ссылка на регистрацию). Pirat.ca - самый быстрый торрент трекер в рунете!

Как скачивать  ·   Что такое торрент  ·   Рейтинг и ограничения



Последний раз редактировалось: kugesan (2017-11-11 11:45), всего редактировалось 2 раз(а)

pacco

Корсар

Пост 23-Окт-2017 09:02 (спустя 14 часов)

[Q] 

спасибо!!!!!!!!!!!!!!!!!!!!
[Профиль]  [ЛС] 

li_stitch

Корсар

Пост 12-Ноя-2017 00:26 (спустя 19 дней)

[Q] 

Сенкс!!! Спасибо!!!
[Профиль]  [ЛС] 
Показать сообщения:    
Ответить на тему

Текущее время: Сегодня 00:49

Часовой пояс: GMT + 4



Вы не можете начинать темы
Вы не можете отвечать на сообщения
Вы не можете редактировать свои сообщения
Вы не можете удалять свои сообщения
Вы не можете голосовать в опросах
Вы не можете прикреплять файлы к сообщениям
Вы не можете скачивать файлы

▼ Вниз