Уважаемый Гость!
Вы можете поддержать проект и зарегистрироваться у наших партнеров - онлайн-стратегия MyLands. При регистрации в игре Вы получите код, который сможете активировать после регистрации на pirat.ca и получить 1000 дублонов.

Ваш код:
d49a3625bbdee1b82b14274f97c375f8b2b2ee4c
 
     

Слуга народа / Сезон: 2 / Серии: 01-24 из 24 (Алексей Кирющенко) [2017 г., комедия, WEB-DLRip-AVC | 2160p | 4K ]

Ответить на тему
 
Автор
Сообщение

Пост 25-Окт-2017 13:28

[Q] 

MIO2008

Штурман

Слуга народа 2 Год выпуска: 2017
Жанр: Комедия
Страна: Украина
Студия: «Квартал-95»
Продолжительность: 24 x ~ 00:25:00
Перевод: Не требуется
Режиссер: Алексей Кирющенко
В ролях: Владимир Зеленский, Станислав Боклан, Наталия Сумская, Виктор Сарайкин, Екатерина Кистень, Анна Кошмал, Ринат Хабибулин, Евгений Кошевой, Александр Пикалов, Юрий Крапов, Елена Кравец, Сергей Казанин
О фильме: Что будет, если президентом станет обычный человек из народа? Новый, честный, принципиальный и, самое главное, – умный человек. Именно эти мысли однажды сподвигли народ избрать президентом простого учителя истории Василия Голобородько... Неожиданно для всех страна получила гаранта, который живет в обычной квартире. Который спокойно идет по улице без армии охранников и запросто ездит на маршрутке, который получает скромную зарплату и иногда занимает у друга "до зарплаты". В общем, который живет – как все. Ведь он точно знает - когда "царь" начнет жить как простой учитель, вскоре простой учитель заживет как царь! И пускай у него нет серебряных пуль и осинового кола, каждое утро Василий Петрович выходит на борьбу с "нечистой силой" и без устали "воюет" с армадой коррумпированных и насквозь прогнивших чинуш, разгребает "авгиевы конюшни" государства. Правда, он не учел одного. Система, где все привыкли безбожно воровать, откатывать и дерибанить – будет против такой заботы о народе.
Качество: WEB-DLRip-AVC | 2160p
Контейнер: mp4
Видео кодек: AVC
Аудио кодек: AAC
Видео: MPEG-4 AVC, ~ 12.5 Mbp/с, 3840x2160, 25 кадр/с
Аудио: 44,1 kHz, AAC, 2 ch, 126 Kbps
Язык: Русский
General
Complete name : H:\Слуга Народа 2 - От любви до импичмента, сериал 2017 в 4к\Слуга Народа 2 - От любви до импичмента, 1 и 2 серии ¦ Премьера сериала 2017 в 4к.mp4
Format : MPEG-4
Format profile : Base Media
Codec ID : isom
File size : 4.64 GiB
Duration : 52mn 29s
Overall bit rate : 12.7 Mbps
Writing application : Lavf57.2.100
Video
ID : 1
Format : AVC
Format/Info : Advanced Video Codec
Format profile : [email protected]
Format settings, CABAC : No
Format settings, ReFrames : 2 frames
Codec ID : avc1
Codec ID/Info : Advanced Video Coding
Duration : 52mn 29s
Bit rate : 12.5 Mbps
Width : 3 840 pixels
Height : 2 160 pixels
Display aspect ratio : 16:9
Frame rate mode : Constant
Frame rate : 25.000 fps
Color space : YUV
Chroma subsampling : 4:2:0
Bit depth : 8 bits
Scan type : Progressive
Bits/(Pixel*Frame) : 0.060
Stream size : 4.59 GiB (99%)
Color primaries : BT.709
Transfer characteristics : BT.709
Matrix coefficients : BT.709
Audio
ID : 2
Format : AAC
Format/Info : Advanced Audio Codec
Format profile : LC
Codec ID : 40
Duration : 52mn 29s
Bit rate mode : Constant
Bit rate : 126 Kbps
Channel(s) : 2 channels
Channel positions : Front: L R
Sampling rate : 44.1 KHz
Compression mode : Lossy
Stream size : 47.1 MiB (1%)
Download / Скачать

Хотите скачать бесплатно? Зарегистрируйтесь на сайте (ссылка на регистрацию). Pirat.ca - самый быстрый торрент трекер в рунете!

Как скачивать  ·   Что такое торрент  ·   Рейтинг и ограничения



Последний раз редактировалось: MIO2008 (Вчера 09:34), всего редактировалось 15 раз(а)

MIO2008 ®

Штурман

40

Пост 26-Окт-2017 09:49 (спустя 20 часов)

[Q] 

Добавлены 7-8 серии, шапку исправил!

_________________
[Профиль]  [ЛС] 

Кристина119

Флибустьер

Пост 27-Окт-2017 20:36 (спустя 1 день 10 часов)

[Q] 

посмотрим, посмотрим, надеюсь вторая часть будет как минимум не хуже первой Лови бочку
[Профиль]  [ЛС] 

alersander

Корсар

Пост 28-Окт-2017 01:44 (спустя 5 часов)

[Q] 

Долгожданный сериал за раздачу спасибо Всем качать!!! Лови бочку
[Профиль]  [ЛС] 

Towelie

Корсар

13

Пост 29-Окт-2017 12:51 (спустя 1 день 11 часов)

[Q] 

спасибо!! Лови бочку
[Профиль]  [ЛС] 

tse

Корсар

Пост 31-Окт-2017 23:31 (спустя 2 дня 10 часов)

[Q] 

Вот интересно! Почему "слуга народа" размещен в зарубежных сериалах, а "Пес" в отечественных? Это как вторая мировая? Для некоторых она отечественная! bk bk
[Профиль]  [ЛС] 

pacco

Корсар

Пост 03-Ноя-2017 09:30 (спустя 2 дня 9 часов)

[Q] 

спасибо!!!!!!!!!!!!!!!!!!!!!
[Профиль]  [ЛС] 

MIO2008 ®

Штурман

40

Пост 03-Ноя-2017 10:20 (спустя 49 минут)

[Q] 

Добавлены 15-16 серии!

_________________
[Профиль]  [ЛС] 

steinel

Лоцман

Пост 04-Ноя-2017 10:37 (спустя 1 день)

[Q] 

прикольно...я и не знал что этот сериал имеется в 2160р
Спасибо!!!

_________________
... а не хлопнуть ли нам по рюмашке? (с) х/ф Покровские ворота
[Профиль]  [ЛС] 

MIO2008 ®

Штурман

40

Пост 04-Ноя-2017 11:15 (спустя 38 минут)

[Q] 

Девятая серия заменена на 2160p!!!

_________________
[Профиль]  [ЛС] 

MIO2008 ®

Штурман

40

Пост 07-Ноя-2017 12:49 (спустя 3 дня)

[Q] 

Добавлена 17-я серия, теперь в день будет выходить по одной серии!

_________________
[Профиль]  [ЛС] 

Victorsalata

Корсар

Пост 07-Ноя-2017 13:31 (спустя 42 минуты)

[Q] 

Неожиданно интересный сериал. Спасибо за раздачу.
[Профиль]  [ЛС] 

unitel1

Штурман

Пост 07-Ноя-2017 20:40 (спустя 7 часов)

[Q] 

Спасибо за раздачу!!!!
[Профиль]  [ЛС] 

MIO2008 ®

Штурман

40

Пост 08-Ноя-2017 09:18 (спустя 12 часов)

[Q] 

Добавлена 22-я!

_________________
[Профиль]  [ЛС] 

ara1205

84671

Пост 15-Ноя-2017 12:02 (спустя 7 дней)

[Q] 

809650Вот интересно! Почему "слуга народа" размещен в зарубежных сериалах, а "Пес" в отечественных? Это как вторая мировая? Для некоторых она отечественная! bk bk
Объясняю. Дело в том что "Пёс" адаптировался сразу на несколько русскоязычных теле-рынков, достаточно посмотреть на номера машин: Вот вам к примеру, посмотрите скрин под спойлером
Номера автомобиля далеко не украинские и не российские, они вообще не какие)))
А вот "Слуга Народа" рассчитан исключительно на украинский рынок, соответственно там много хороших шуток но некоторые из них поймут только люди живущие в Украине, ну или на крайняк кто в теме. Так же можете посмотреть постер, хоть на пиратке хоть на кинопоиске, его даже не пытались делать русским.
[Профиль]  [ЛС] 

balex26

Корсар

Пост 15-Ноя-2017 14:23 (спустя 2 часа 20 минут)

[Q] 

В ролях указана Анна Кошмал, хотя она играла только в первой части помощницу президента, а здесь играет Анастасия Чепелюк.
[Профиль]  [ЛС] 

MIO2008 ®

Штурман

40

Пост 16-Ноя-2017 12:21 (спустя 21 час)

[Q] 

Добавлена 24-я, заключительная серия второго сезона!
Анна Кошмал в сериале "Слуга народа" сыграла роль племянницы, дочери сестры!

_________________
[Профиль]  [ЛС] 
Показать сообщения:    
Ответить на тему

Текущее время: Сегодня 19:49

Часовой пояс: GMT + 4



Вы не можете начинать темы
Вы не можете отвечать на сообщения
Вы не можете редактировать свои сообщения
Вы не можете удалять свои сообщения
Вы не можете голосовать в опросах
Вы не можете прикреплять файлы к сообщениям
Вы не можете скачивать файлы

▼ Вниз