Уважаемый Гость!
Вы можете поддержать проект и зарегистрироваться у наших партнеров - онлайн-стратегия MyLands. При регистрации в игре Вы получите код, который сможете активировать после регистрации на pirat.ca и получить 1000 дублонов.

Ваш код:
b37e868614b5986b196b50edccc8d7d20ba31134
 
     

Железная дорога (Алексей Федорченко) [2007 г., комедия, драма, DVDRip]

Ответить на тему
 
Автор
Сообщение

Пост 04-Ноя-2017 15:13

[Q] 

vamo

Шкипер

-Железная дорога-- Производство: Россия
Год выпуска: 2007 г.
Жанр: комедия, драма
Продолжительность: 01:43:05-Режиссёр: Алексей Федорченко-В ролях: Сергей Беляев, Виктор Тереля, Ольга Дегтярева, Даниил Шавкунов, Петр Зайченко, Виктор Матизен, Татьяна Орлова, Александр Нехороших, Леонид Чистов, Сергей Ярмолюк-Описание: Однажды осенью два друга — шофер и директор школы — воруют вагон угля и на старом паровозе по заброшенной с прошлого века железнодорожной ветке везут его продавать. Директор хочет ремонт в школе сделать и компьютер купить, а шофер бежит от своей всепожирающей ревности. С друзьями едет сын шофера — немой семилетний мальчик Мишка, буфетчица Луиза и странное дряхлое существо — машинист. Найдут ли друзья свое счастье?- -Качество видео: DVDRip
Контейнер: AVI
Видео кодек: XviD
Аудио кодек: AC3
Видео: 720x384 (1.88:1), 25 fps, XviD build 67 ~2398 kbps avg, 0.347 bit/pixel
Аудио: 48 kHz, AC3 Dolby Digital, 2/0 (L,R) ch, ~384 kbps-
Формат : AVI
Формат/Информация : Audio Video Interleave
Профиль формата : OpenDML
Размер файла : 2,01 Гбайт
Продолжительность : 1 ч. 43 м.
Общий поток : 2793 Кбит/сек
Программа кодирования : Lavf57.71.100
Видео
Идентификатор : 0
Формат : MPEG-4 Visual
Профиль формата : Advanced [email protected]
Параметр BVOP формата : Нет
Параметр QPel формата : Нет
Параметр GMC формата : Без точки перехода
Параметр матрицы формата : Default (H.263)
Идентификатор кодека : XVID
Идентификатор кодека/Подсказка : XviD
Продолжительность : 1 ч. 43 м.
Битрейт : 2398 Кбит/сек
Ширина : 720 пикселей
Высота : 384 пикселя
Соотношение сторон : 1,85:1
Частота кадров : 25,000 кадров/сек
Цветовое пространство : YUV
Субдискретизация насыщенности : 4:2:0
Битовая глубина : 8 бит
Тип развёртки : Прогрессивная
Метод сжатия : С потерями
Бит/(Пиксели*Кадры) : 0.347
Размер потока : 1,73 Гбайт (86%)
Библиотека кодирования : XviD 67
Аудио
Идентификатор : 1
Формат : AC-3
Формат/Информация : Audio Coding 3
Расширение режима : CM (complete main)
Параметр Endianness формата : Big
Идентификатор кодека : 2000
Продолжительность : 1 ч. 43 м.
Вид битрейта : Постоянный
Битрейт : 384 Кбит/сек
Каналы : 2 канала
Расположение каналов : Front: L R
Частота : 48,0 КГц
Частота кадров : 31,250 кадров/сек (1536 spf)
Битовая глубина : 16 бит
Метод сжатия : С потерями
Размер потока : 283 Мбайт (14%)
Выравнивание : Соединение по промежуткам
Продолжительность промежутка : 32 мс. (0,80 видеокадр)
-
-
Download / Скачать

Хотите скачать бесплатно? Зарегистрируйтесь на сайте (ссылка на регистрацию). Pirat.ca - самый быстрый торрент трекер в рунете!

Как скачивать  ·   Что такое торрент  ·   Рейтинг и ограничения

Пост 04-Ноя-2017 20:29 (спустя 5 часов)

Топик был перенесен из форума Наше кино (Трюм) в форум Российские фильмы
ara1205
 

alersander

Корсар

Пост 04-Ноя-2017 23:05 (спустя 7 часов)

[Q] 

Что за фильм? смотреть можно? о Лови бочку тпишитесь.
[Профиль]  [ЛС] 
Показать сообщения:    
Ответить на тему

Текущее время: Сегодня 15:14

Часовой пояс: GMT + 4



Вы не можете начинать темы
Вы не можете отвечать на сообщения
Вы не можете редактировать свои сообщения
Вы не можете удалять свои сообщения
Вы не можете голосовать в опросах
Вы не можете прикреплять файлы к сообщениям
Вы не можете скачивать файлы

▼ Вниз