Уважаемый Гость!
Вы можете поддержать проект и зарегистрироваться у наших партнеров - онлайн-стратегия MyLands. При регистрации в игре Вы получите код, который сможете активировать после регистрации на pirat.ca и получить 1000 дублонов.

Ваш код:
682fda369db314ffc3bf18d836fce8f4c6b7be8f
 
     

Счастливого дня смерти / Happy Death Day (Кристофер Лэндон / Christopher Landon) [2017 г., ужасы, триллер, детектив, комедия, WEB-DLRip] MVO + Sub (Kor) hardsub

Ответить на тему
 
Автор
Сообщение

Пост 05-Ноя-2017 17:59

[Q] 

ara1205

-Счастливого дня смерти / Happy Death Day-- Производство: США
Год выпуска: 2017 г.
Жанр: ужасы, триллер, детектив, комедия
Продолжительность: 01:35:53
Мировая премьера: 7 октября 2017
Российская премьера: 30 ноября 2017
Перевод: Любительский (многоголосый, закадровый) [Paradox & Omskbird records]-Режиссёр: Кристофер Лэндон / Christopher Landon-В ролях: Джессика Рот, Израэль Бруссар, Руби Модин, Лаура Клифтон, Джейсон Бэйл, Роб Мелло, Рэйчел Мэттьюз, Фи Ву-Описание: Каждый в универе мечтал попасть на её день рождения, но праздник был безнадежно испорчен незнакомцем в маске, убившим виновницу торжества. Однако судьба преподнесла имениннице леденящий душу подарок — бесконечный запас жизней. И теперь у девушки появился шанс вычислить своего убийцу, ведь этот день будет повторяться снова и снова…- -Качество видео: WEB-DLRip
Контейнер: AVI
Видео кодек: XviD
Аудио кодек: AC3
Видео: 720х288, 25 fps, 1841 Kbps, 0.355 bits/pixel
Аудио: 48 kHz, AC3 Dolby Digital, 2 ch, 192 Kbps
Cубтитры: Корейские: hardsub (Неотключаемые)-
Общее
Полное имя : C:\Users\Admin\Pictures\Счастливого дня смерти\S4aslivogo.Dnya.Smerti.2017.WEBRip.[pirat.ca].avi
Формат : AVI
Формат/Информация : Audio Video Interleave
Размер файла : 1,37 Гбайт
Продолжительность : 1 ч. 35 м.
Общий поток : 2043 Кбит/сек
Название фильма : Rustorrents.pw
Программа кодирования : VirtualDubMod 1.5.10.3 | www.virtualdub-fr.org || (build 2550/release)
Видео
Идентификатор : 0
Формат : MPEG-4 Visual
Профиль формата : Advanced [email protected]
Параметр BVOP формата : 2
Параметр QPel формата : Нет
Параметр GMC формата : Без точки перехода
Параметр матрицы формата : Выборочная
Идентификатор кодека : XVID
Идентификатор кодека/Подсказка : XviD
Продолжительность : 1 ч. 35 м.
Битрейт : 1841 Кбит/сек
Ширина : 720 пикселей
Высота : 288 пикселей
Соотношение сторон : 2,500
Частота кадров : 25,000 кадров/сек
Цветовое пространство : YUV
Субдискретизация насыщенности : 4:2:0
Битовая глубина : 8 бит
Тип развёртки : Прогрессивная
Метод сжатия : С потерями
Бит/(Пиксели*Кадры) : 0.355
Размер потока : 1,23 Гбайт (90%)
Библиотека кодирования : XviD 1.2.1 (UTC 2008-12-04)
Аудио
Идентификатор : 1
Формат : AC-3
Формат/Информация : Audio Coding 3
Расширение режима : CM (complete main)
Параметр Endianness формата : Big
Идентификатор кодека : 2000
Продолжительность : 1 ч. 35 м.
Вид битрейта : Постоянный
Битрейт : 192 Кбит/сек
Каналы : 2 канала
Расположение каналов : Front: L R
Частота : 48,0 КГц
Битовая глубина : 16 бит
Метод сжатия : С потерями
Размер потока : 132 Мбайт (9%)
Выравнивание : Разделение по промежуткам
Продолжительность промежутка : 40 мс. (1,00 видеокадр)
Время предзагрузки промежутка : 500 мс.
-
-
Download / Скачать

Хотите скачать бесплатно? Зарегистрируйтесь на сайте (ссылка на регистрацию). Pirat.ca - самый быстрый торрент трекер в рунете!

Как скачивать  ·   Что такое торрент  ·   Рейтинг и ограничения

razerface

Флибустьер

2441

Пост 06-Ноя-2017 14:01 (спустя 20 часов)

[Q] 

Прямо день сурка с Мюрреем. Но в целом ничего, смтреть можно.

_________________
Я — личность творческая, хочу творю, хочу вытворяю!
[Профиль]  [ЛС] 

Мания величия

Морской Волк

Пост 06-Ноя-2017 14:55 (спустя 53 минуты)

[Q] 

забираю и постою на раздаче раздавану бочку

_________________
[Профиль]  [ЛС] 

rampage-2

Морской Волк

Пост 22-Ноя-2017 10:21 (спустя 15 дней)

[Q] 

Фильм так себе, если только раз да под пивко, короче на любителя, уж больно он какой то весь прям американсйки.
На любителя
[Профиль]  [ЛС] 

Окакий

Лоцман

Пост 23-Ноя-2017 00:30 (спустя 14 часов)

[Q] 

Нормальный фильмец
[Профиль]  [ЛС] 

Madwarg

Корсар

Пост 09-Дек-2017 00:01 (спустя 15 дней)

[Q] 

заценю, спасибо!
[Профиль]  [ЛС] 

kugesan

61789

Пост 10-Фев-2018 17:39 (спустя 2 месяца 1 день)

[Q] 

Счастливого дня смерти / Happy Death Day (Кристофер Лэндон / Christopher Landon) [2017 г., ужасы, триллер, детектив, комедия, HDRip] MVOx2 [Paradox" & Omskbird records][AlexFilm]

_________________
В мире две бесконечности: вселенная и человеческая глупость - Альберт Эйнштен
«Можно вытащить человека из грязи, но нельзя вытащить грязь из человека»!
[Профиль]  [ЛС] 
Показать сообщения:    
Ответить на тему

Текущее время: Сегодня 11:34

Часовой пояс: GMT + 4



Вы не можете начинать темы
Вы не можете отвечать на сообщения
Вы не можете редактировать свои сообщения
Вы не можете удалять свои сообщения
Вы не можете голосовать в опросах
Вы не можете прикреплять файлы к сообщениям
Вы не можете скачивать файлы

▼ Вниз