Уважаемый Гость!
Вы можете поддержать проект и зарегистрироваться у наших партнеров - онлайн-стратегия MyLands. При регистрации в игре Вы получите код, который сможете активировать после регистрации на pirat.ca и получить 1000 дублонов.

Ваш код:
d49a3625bbdee1b82b14274f97c375f8b2b2ee4c
 
     

Бесстыжие / Shameless / Сезон: 8 / Серии: 1-2 из 12 (Марк Майлод / Mark Mylod) [2017 г., драма, комедия, HDTVRip] МVO (AlexFilm) + Original (Eng) [Обновляемая]

Ответить на тему
 
Автор
Сообщение

Пост 09-Ноя-2017 14:31

[Q] 

kugesan

Бесстыжие / Shameless
«The Gallaghers: Absolutely, Wildly, Unapologetically...»
- Страна: США
Год выпуска: 2017
Жанр: драма, комедия, ...
Продолжительность: ~ 00:55:00 мин серия-Озвучка: Студия
Перевод: Многоголосый закадровый, профессиональный
Оригинальный аудиопоток: английский-Озвучка: Евгения Тихонова, Анастасия Флигина, Константин Погодаев, Александр Дасевич, Михаил Суслов
Монтаж и сведение звука: Михаил Шорыгин
Автор перевода: Александр Митраков
Постер: Андрей Шапал-Премьера (мир): 9 января 2011, ...
Премьера (РФ): 18 июня 2013-Режиссер: Марк Майлод / Mark Mylod, Мими Ледер / Mimi Leder, Энтони Хемингуэй / Anthony Hemingway, ...
В главных ролях: Уильям Х. Мэйси, Эмми Россам, Камерон Монахэн, Джереми Аллен Уайт, Эмма Кинни, Итэн Каткоски, Блейк Александр Джонсон, Бреннан Кэйн Джонсон, Шанола Хэмптон, Стив Хоуи, Джоан Кьюсак, Ноэль Фишер, Эмма Гринвелл, Джэйк Макдорман ...-Описание фильма:
В новый год - с новыми геморроями! Шестой сезон сериала "Бесстыжие" расскажет о том, в какие переплёты продолжит попадать главная семья Чикаго. Продолжит ли кто-то славное дело скорбящего по ушедшей любви Фрэнка? Как скажется на жителях гетто джентрификация? Что ждёт Фиону и её бурную личную жизнь? И, конечно, главный вопрос - что же будет с Карлом? Всё это вы узнаете в новом сезоне.-
Качество видео: HDTVRip
Формат: AVI
Видеокодек: XviD
Аудиокодек: MP3
Видео: MPEG-4 Visual at 1402 Кбит/сек: 720 x 400 (1.800) at 23.976 fps, 0.20 bit/pixel
Аудио Rus: MPEG Audio at 128 Кбит/сек, 2 канала, 48,0 КГц |AlexFilm|
Аудио Eng: MPEG Audio at 128 Кбит/сек, 2 канала, 48,0 КГц |Original|
Cубтитры: отсутствуют
-
-
  • Мы становимся теми, кто ... Фрэнк
  • Где мой мет
-
Общее
Полное имя : E:\_Сериалы\_Сериалы\Бесстыжие\Shameless (US) - Season 8 (AlexFilm) WEB-DLRip\Shameless.US.s08e01.WEB-DLRip.Rus.Eng.AlexFilm.avi
Формат : AVI
Формат/Информация : Audio Video Interleave
Размер файла : 667 Мбайт
Продолжительность : 55 м. 43 с.
Общий поток : 1673 Кбит/сек
Название фильма : Shameless US 8x01 @ AlexFilm
Программа кодирования : VirtualDubMod 1.5.10.2 (build 2540/release)
Библиотека кодирования : VirtualDubMod build 2540/release
Видео
Идентификатор : 0
Формат : MPEG-4 Visual
Профиль формата : Advanced [email protected]
Параметр BVOP формата : Нет
Параметр QPel формата : Нет
Параметр GMC формата : Без точки перехода
Параметр матрицы формата : Default (MPEG)
Идентификатор кодека : XVID
Идентификатор кодека/Подсказка : XviD
Продолжительность : 55 м. 43 с.
Битрейт : 1403 Кбит/сек
Ширина : 720 пикселей
Высота : 400 пикселей
Соотношение сторон : 16:9
Частота кадров : 23,976 (24000/1001) кадра/сек
Цветовое пространство : YUV
Субдискретизация насыщенности : 4:2:0
Битовая глубина : 8 бит
Тип развёртки : Прогрессивная
Метод сжатия : С потерями
Бит/(Пиксели*Кадры) : 0.203
Размер потока : 559 Мбайт (84%)
Библиотека кодирования : XviD 73
Аудио #1
Идентификатор : 1
Формат : MPEG Audio
Версия формата : Version 1
Профиль формата : Layer 3
Настройки формата : Joint stereo / MS Stereo
Идентификатор кодека : 55
Идентификатор кодека/Подсказка : MP3
Продолжительность : 55 м. 43 с.
Вид битрейта : Постоянный
Битрейт : 128 Кбит/сек
Каналы : 2 канала
Частота : 48,0 КГц
Метод сжатия : С потерями
Размер потока : 51,0 Мбайт (8%)
Выравнивание : Соединение по промежуткам
Продолжительность промежутка : 42 мс. (1,00 видеокадр)
Время предзагрузки промежутка : 504 мс.
Заголовок : Russian (AlexFilm)
Библиотека кодирования : LAME3.99.5U<яФёЎ–Т
Аудио #2
Идентификатор : 2
Формат : MPEG Audio
Версия формата : Version 1
Профиль формата : Layer 3
Настройки формата : Joint stereo / MS Stereo
Идентификатор кодека : 55
Идентификатор кодека/Подсказка : MP3
Продолжительность : 55 м. 43 с.
Вид битрейта : Постоянный
Битрейт : 128 Кбит/сек
Каналы : 2 канала
Частота : 48,0 КГц
Метод сжатия : С потерями
Размер потока : 51,0 Мбайт (8%)
Выравнивание : Соединение по промежуткам
Продолжительность промежутка : 42 мс. (1,00 видеокадр)
Время предзагрузки промежутка : 504 мс.
Заголовок : English
Библиотека кодирования : LAME3.90.3ЄЄЄЄЄЄЄЄЄЄ
-
-Скриншоты:
-
Раздача ведётся путём добавления новых серий; при каждом добавлении создаётся новый торрент.
Чтобы начать докачку новой серии, пользователям необходимо сделать следующее:
1. остановить скачивание,
2. удалить старый торрент у себя из клиента (старые серии удалять не надо),
3. скачать новый торрент и запустить его у себя в клиенте вместо старого, при этом указать клиенту путь в старую папку, куда и должно происходить скачивание новых серий.
Ваш клиент при этом должен произвести хеширование (проверку) старой папки (если не производит сам - помогите ему сделать это), и будет докачивать только те серии которых у вас ещё нет. Старые серии при этом не удаляются, а продолжают раздаваться!
Eсли вы уже удалили старые серии, то предотвратить повторную закачку старых серий можно, отжав галочку в соответствующих местах при запуске нового торрента. По возможности, желательно не удалять старые серии как можно дольше, чтобы релизёр не столько продолжал раздавать старые серии, а смог сконцентрироваться на новых.
Совет для тех, кто не хочет ждать перехеширования:
Создайте ещё одну папку рядом с папкой сериала (рядом, а не в ней!!!). Каждую новую серию после удачной загрузки копируйте в новую папку так чтобы ваша основная папка всегда была пуста. Когда ваш новый торрент предложит вам закачать все файлы, выберете только последнюю. Для сидирования же укажите адрес новой папки.
Как закачать отдельный файл из торрента или докачать ранее пропущенные файлы торрента!
-
1. Открыть торрент
2. Снять галки с тех файлов торрента, которые мы не хотим закачивать. Оставляем только на нужных нам файлах (файле).
3. Нажать О.К.
В клиенте utorrent
Инструкция
1) Открыть торрент

2) Снять галки с тех файлов торрента, которые мы не хотим закачивать:
* либо вручную, снимая с каждого файла галку( скрин №1)
* либо, нажав кнопку "Снять метки (Select None)", сняв сразу со всех файлов(скрин №2)
№1

№2

Оставляем только на нужных нам файлах (файле).

3)Нажать О.К
-Приятного просмотра!!!-
Download / Скачать

Хотите скачать бесплатно? Зарегистрируйтесь на сайте (ссылка на регистрацию). Pirat.ca - самый быстрый торрент трекер в рунете!

Как скачивать  ·   Что такое торрент  ·   Рейтинг и ограничения

zezikspb

Лоцман

Пост 15-Ноя-2017 15:20 (спустя 6 дней)

[Q] 

Офигеть начал смотреть и понял что провафлил 7 сезон, но тем и лучше сразу 2 сезона посмотрю.
[Профиль]  [ЛС] 
Показать сообщения:    
Ответить на тему

Текущее время: Сегодня 19:48

Часовой пояс: GMT + 4



Вы не можете начинать темы
Вы не можете отвечать на сообщения
Вы не можете редактировать свои сообщения
Вы не можете удалять свои сообщения
Вы не можете голосовать в опросах
Вы не можете прикреплять файлы к сообщениям
Вы не можете скачивать файлы

▼ Вниз