Уважаемый Гость!
Вы можете поддержать проект и зарегистрироваться у наших партнеров - онлайн-стратегия MyLands. При регистрации в игре Вы получите код, который сможете активировать после регистрации на pirat.ca и получить 1000 дублонов.

Ваш код:
15a7cdbdaaac2e272ce118ded526d4d1e5752146
 
     

Радиус / Radius (Кэролайн Лабреш / Caroline Labrèche, Steeve Léonard) [2017 г., фантастика, триллер, WEB-DLRip] MVO

Ответить на тему
 
Автор
Сообщение

Пост 11-Ноя-2017 16:28

[Q] 

ara1205

-Радиус / Radius-- Производство: Канада
Год выпуска: 2017 г.
Жанр: фантастика, триллер
Продолжительность: 01:33:44
Мировая премьера: 17 июля 2017
Перевод: Любительский (многоголосый, закадровый) [Синема УС]-Режиссёр: Кэролайн Лабреш / Caroline Labrèche, Steeve Léonard-В ролях: Диего Клаттенхофф, Шарлотта Салливан, Роберт Боргес, Андреа дель Кампо, Назарий Демкович, Бретт Донахью, Алисия Джонстон, Гарт Меркели-Описание: Очнувшись после автомобильной аварии Лиам не ничего не помнит. Он пытается найти помощь, но на его пути встречаются лишь мертвые тела. Первая догадка Лиама - вирус, распространяющийся по воздуху. Но так ли это?...- -Качество видео: WEB-DLRip
Контейнер: AVI
Видео кодек: XviD
Аудио кодек: AC3
Видео: 720х304, 23,976 fps, 1669 Kbps, 0.318 bits/pixel
Аудио: 48 kHz, AC3 Dolby Digital, 2 ch, 384 Kbps
Cубтитры: отсутствуют-
Общее
Полное имя : C:\Users\Admin\Pictures\Радиус\Radius.2017.P.WEB-DLRip.14OOMB.avi
Формат : AVI
Формат/Информация : Audio Video Interleave
Размер файла : 1,35 Гбайт
Продолжительность : 1 ч. 33 м.
Общий поток : 2063 Кбит/сек
Программа кодирования : VirtualDubMod 1.5.10.2 (build 2540/release)
Библиотека кодирования : VirtualDubMod build 2540/release
Видео
Идентификатор : 0
Формат : MPEG-4 Visual
Профиль формата : Advanced [email protected]
Параметр BVOP формата : 2
Параметр QPel формата : Нет
Параметр GMC формата : Без точки перехода
Параметр матрицы формата : Default (MPEG)
Идентификатор кодека : XVID
Идентификатор кодека/Подсказка : XviD
Продолжительность : 1 ч. 33 м.
Битрейт : 1669 Кбит/сек
Ширина : 720 пикселей
Высота : 304 пикселя
Соотношение сторон : 2,35:1
Частота кадров : 23,976 кадра/сек
Цветовое пространство : YUV
Субдискретизация насыщенности : 4:2:0
Битовая глубина : 8 бит
Тип развёртки : Прогрессивная
Метод сжатия : С потерями
Бит/(Пиксели*Кадры) : 0.318
Размер потока : 1,09 Гбайт (81%)
Библиотека кодирования : XviD 1.2.1 (UTC 2008-12-04)
Аудио
Идентификатор : 1
Формат : AC-3
Формат/Информация : Audio Coding 3
Расширение режима : CM (complete main)
Параметр Endianness формата : Big
Идентификатор кодека : 2000
Продолжительность : 1 ч. 33 м.
Вид битрейта : Постоянный
Битрейт : 384 Кбит/сек
Каналы : 2 канала
Расположение каналов : Front: L R
Частота : 48,0 КГц
Битовая глубина : 16 бит
Метод сжатия : С потерями
Размер потока : 257 Мбайт (19%)
Выравнивание : Разделение по промежуткам
Продолжительность промежутка : 42 мс. (1,00 видеокадр)
Время предзагрузки промежутка : 500 мс.
-
-ВНИМАНИЕ!!! В ВИДЕОФАЙЛЕ ПРИСУТСТВУЕТ РЕКЛАМА!!!-
Download / Скачать

Хотите скачать бесплатно? Зарегистрируйтесь на сайте (ссылка на регистрацию). Pirat.ca - самый быстрый торрент трекер в рунете!

Как скачивать  ·   Что такое торрент  ·   Рейтинг и ограничения

feldorius

Корсар

Пост 12-Ноя-2017 23:00 (спустя 1 день 6 часов)

[Q] 

На последнем скрине Дин Винчестер?
[Профиль]  [ЛС] 

medved218

Корсар

Пост 13-Ноя-2017 08:19 (спустя 9 часов)

[Q] 

своеобразный фильмец, качество режиссёрской работы на среднем уровне. 7/10
[Профиль]  [ЛС] 

Madwarg

Морской Волк

Пост Вчера 22:17 (спустя 4 дня)

[Q] 

Пох, забрал! Лови бочку

_________________
Я не Морской Волк, я Корсар! Просто немногословный... ;)
[Профиль]  [ЛС] 
Показать сообщения:    
Ответить на тему

Текущее время: Сегодня 12:24

Часовой пояс: GMT + 4



Вы не можете начинать темы
Вы не можете отвечать на сообщения
Вы не можете редактировать свои сообщения
Вы не можете удалять свои сообщения
Вы не можете голосовать в опросах
Вы не можете прикреплять файлы к сообщениям
Вы не можете скачивать файлы

▼ Вниз