Уважаемый Гость!
Вы можете поддержать проект и зарегистрироваться у наших партнеров - онлайн-стратегия MyLands. При регистрации в игре Вы получите код, который сможете активировать после регистрации на pirat.ca и получить 1000 дублонов.

Ваш код:
15a7cdbdaaac2e272ce118ded526d4d1e5752146
 
     

Лайкай, делись, смотри / Like.Share.Follow. (Гленн Герс / Glenn Gers) [2017 г., ужасы, триллер, мелодрама, WEB-DLRip] MVO

Ответить на тему
 
Автор
Сообщение

Пост 11-Ноя-2017 16:55

[Q] 

ara1205

-Лайкай, делись, смотри / Like.Share.Follow.-- Производство: США
Год выпуска: 2017 г.
Жанр: ужасы, триллер, мелодрама
Продолжительность: 01:30:54
Мировая премьера: 31 октября 2017
Перевод: Любительский (многоголосый, закадровый) [Синема УС]-Режиссёр: Гленн Герс / Glenn Gers-В ролях: Кейнан Лонсдейл, Эма Хорват, Абрахам Бенруби, Майкл Ботмэн, Патрик Горман, Нат Хартли-Описание: Популярный ютубер Гаррет Хофман - хоть и является интернет-знаменитостью с двумя миллионами подписчиков - старается жить обычной жизнью и не пользоваться "звездным" статусом, но вскоре у него, как и у любой знаменитости - появляется одержимый фанат-преследователь, готовый буквально на все, чтобы быть рядом со своим кумиром.- -Качество видео: WEB-DLRip
Контейнер: AVI
Видео кодек: XviD
Аудио кодек: AC3
Видео: 720х400, 23,976 fps, 1759 Kbps, 0.255 bits/pixel
Аудио: 48 kHz, AC3 Dolby Digital, 2 ch, 384 Kbps
Cубтитры: отсутствуют-
Общее
Полное имя : C:\Users\Admin\Pictures\Лайкай, делись, смотри\Like.Share.Follow.2017.P.WEB-DLRip.14OOMB.avi
Формат : AVI
Формат/Информация : Audio Video Interleave
Размер файла : 1,37 Гбайт
Продолжительность : 1 ч. 30 м.
Общий поток : 2152 Кбит/сек
Программа кодирования : VirtualDubMod 1.5.10.2 (build 2540/release)
Библиотека кодирования : VirtualDubMod build 2540/release
Видео
Идентификатор : 0
Формат : MPEG-4 Visual
Профиль формата : Advanced [email protected]
Параметр BVOP формата : 2
Параметр QPel формата : Нет
Параметр GMC формата : Без точки перехода
Параметр матрицы формата : Default (MPEG)
Идентификатор кодека : XVID
Идентификатор кодека/Подсказка : XviD
Продолжительность : 1 ч. 30 м.
Битрейт : 1759 Кбит/сек
Ширина : 720 пикселей
Высота : 400 пикселей
Соотношение сторон : 16:9
Частота кадров : 23,976 кадра/сек
Цветовое пространство : YUV
Субдискретизация насыщенности : 4:2:0
Битовая глубина : 8 бит
Тип развёртки : Прогрессивная
Метод сжатия : С потерями
Бит/(Пиксели*Кадры) : 0.255
Размер потока : 1,12 Гбайт (82%)
Библиотека кодирования : XviD 1.2.1 (UTC 2008-12-04)
Аудио
Идентификатор : 1
Формат : AC-3
Формат/Информация : Audio Coding 3
Расширение режима : CM (complete main)
Параметр Endianness формата : Big
Идентификатор кодека : 2000
Продолжительность : 1 ч. 30 м.
Вид битрейта : Постоянный
Битрейт : 384 Кбит/сек
Каналы : 2 канала
Расположение каналов : Front: L R
Частота : 48,0 КГц
Битовая глубина : 16 бит
Метод сжатия : С потерями
Размер потока : 250 Мбайт (18%)
Выравнивание : Разделение по промежуткам
Продолжительность промежутка : 42 мс. (1,00 видеокадр)
Время предзагрузки промежутка : 500 мс.
-
-ВНИМАНИЕ!!! В ВИДЕОФАЙЛЕ ПРИСУТСТВУЕТ РЕКЛАМА!!!-
Download / Скачать

Хотите скачать бесплатно? Зарегистрируйтесь на сайте (ссылка на регистрацию). Pirat.ca - самый быстрый торрент трекер в рунете!

Как скачивать  ·   Что такое торрент  ·   Рейтинг и ограничения

Показать сообщения:    
Ответить на тему

Текущее время: Сегодня 12:21

Часовой пояс: GMT + 4



Вы не можете начинать темы
Вы не можете отвечать на сообщения
Вы не можете редактировать свои сообщения
Вы не можете удалять свои сообщения
Вы не можете голосовать в опросах
Вы не можете прикреплять файлы к сообщениям
Вы не можете скачивать файлы

▼ Вниз