Уважаемый Гость!
Вы можете поддержать проект и зарегистрироваться у наших партнеров - онлайн-стратегия MyLands. При регистрации в игре Вы получите код, который сможете активировать после регистрации на pirat.ca и получить 1000 дублонов.

Ваш код:
15a7cdbdaaac2e272ce118ded526d4d1e5752146
 
     

Монстро / Cloverfield (Мэтт Ривз / Matt Reeves) [2008 г., Ужасы, фантастика, триллер, детектив, HDRip] AVO (Андрей Гаврилов)

Ответить на тему
 
Автор
Сообщение

Пост 11-Ноя-2017 19:17

[Q] 

Evgesha 76

Корсар

Монстро / Cloverfield
Год выпуска: 2008
Производство: США. Bad Robot, Paramount Pictures
Жанр: Ужасы, фантастика, триллер, детектив
Продолжительность: 01:24:41
Перевод: Авторский (одноголосый, закадровый) Андрей Гаврилов
Субтитры: отсутствуют
Режиссер: Мэтт Ривз / Matt Reeves
В ролях: Майкл Сталь-Дэвид, Одетт Эннэйбл, Майк Фогель, Джессика Лукас, ТиДжей Миллер, Лиззи Каплан, Анжул Нигам, Марго Фарли, Тео Росси, Брайан Клагман, Келвин Ю, Лиза Лапира, Лили Мирожник, Бен Фельдман, Елена Карузо, Вакиша Коулмэн, Уилл Гринберг, Роб Керкович, Райан Ки, Хооман Халили, Расика Матур, Барон Вон, Шарлин Йи, Рома Торре, Рик Овертон, Мартин Коэн, Джейсон Кербоун, Павел Личникофф, Билли Браун, Скотт Лоуренс, Джеффри Де Серрано, Тим Гриффин, Крис Малки, Суссе Будде, Джейсон Ломбард, Джэми Мартц, Дон Абернати, Кэйли Оукс-Биссон.
Описание: Прощальную вечеринку уезжающего в Японию Роба прерывает громогласный рык — нечто напало на Нью-Йорк, сея панику, разрушения и пожирая людей. Армия бессильна против гигантского монстра, Манхэттен объявлен закрытой зоной, но где-то неподалеку от Центрального парка в беду попала девушка Роба… .
Сэмпл , IMDB , КиноПоиск
Качество видео: HDRip
Контейнер: AVI
Видео кодек: XviD
Аудио кодек: AC3
Видео: 720x400 (16:9), 23,976 fps, XviD 1.2.1 ~2004 kbps avg, 0.290 bit/pixel
Аудио : 48 kHz, AC3, 6 ch, 448 kbps avg - А.Гаврилов
Общее
Полное имя : Cloverfield.2008.HDRip.Gavrilov.lumpeN.avi
Формат : AVI
Формат/Информация : Audio Video Interleave
Размер файла : 1,46 Гбайт
Продолжительность : 1 ч. 24 м.
Общий поток : 2461 Кбит/сек
Название фильма : lumpeN
Программа кодирования : VirtualDubMod 1.5.10.2 (build 2540/release)
Библиотека кодирования : VirtualDubMod build 2540/release
Видео
Идентификатор : 0
Формат : MPEG-4 Visual
Профиль формата : Advanced [email protected]
Параметр BVOP формата : 1
Параметр QPel формата : Нет
Параметр GMC формата : Без точки перехода
Параметр матрицы формата : Выборочная
Идентификатор кодека : XVID
Идентификатор кодека/Подсказка : XviD
Продолжительность : 1 ч. 24 м.
Битрейт : 2004 Кбит/сек
Ширина : 720 пикселей
Высота : 400 пикселей
Соотношение сторон : 16:9
Частота кадров : 23,976 (24000/1001) кадра/сек
Цветовое пространство : YUV
Субдискретизация насыщенности : 4:2:0
Битовая глубина : 8 бит
Тип развёртки : Прогрессивная
Метод сжатия : С потерями
Бит/(Пиксели*Кадры) : 0.290
Размер потока : 1,18 Гбайт (81%)
Библиотека кодирования : XviD 1.2.1 (UTC 2008-12-04)
Аудио
Идентификатор : 1
Формат : AC-3
Формат/Информация : Audio Coding 3
Параметр Endianness формата : Big
Идентификатор кодека : 2000
Продолжительность : 1 ч. 24 м.
Вид битрейта : Постоянный
Битрейт : 448 Кбит/сек
Каналы : 6 каналов
Расположение каналов : Front: L C R, Side: L R, LFE
Частота : 48,0 КГц
Частота кадров : 31,250 кадров/сек (1536 SPF)
Битовая глубина : 16 бит
Метод сжатия : С потерями
Размер потока : 271 Мбайт (18%)
Выравнивание : Разделение по промежуткам
Продолжительность промежутка : 42 мс. (1,00 видеокадр)
Время предзагрузки промежутка : 500 мс.
Заголовок : Gavrilov
ServiceKind/String : Complete Main
Download / Скачать

Хотите скачать бесплатно? Зарегистрируйтесь на сайте (ссылка на регистрацию). Pirat.ca - самый быстрый торрент трекер в рунете!

Как скачивать  ·   Что такое торрент  ·   Рейтинг и ограничения

Пост 11-Ноя-2017 23:09 (спустя 3 часа)

Топик был перенесен из форума Фильмы с Авторским переводом (Трюм) в форум Фильмы 2001 - 2010 г.г.
gross1978
 
Показать сообщения:    
Ответить на тему

Текущее время: Сегодня 12:22

Часовой пояс: GMT + 4



Вы не можете начинать темы
Вы не можете отвечать на сообщения
Вы не можете редактировать свои сообщения
Вы не можете удалять свои сообщения
Вы не можете голосовать в опросах
Вы не можете прикреплять файлы к сообщениям
Вы не можете скачивать файлы

▼ Вниз