Уважаемый Гость!
Вы можете поддержать проект и зарегистрироваться у наших партнеров - онлайн-стратегия MyLands. При регистрации в игре Вы получите код, который сможете активировать после регистрации на pirat.ca и получить 1000 дублонов.

Ваш код:
15a7cdbdaaac2e272ce118ded526d4d1e5752146
 
     

Кловерфилд, 10 / 10 Cloverfield Lane (Дэн Трахтенберг / Dan Trachtenberg) [2016 г., Ужасы, фантастика, триллер, драма, детектив, BDRip] AVO (Андрей Гаврилов)

Ответить на тему
 
Автор
Сообщение

Пост 11-Ноя-2017 19:35

[Q] 

Evgesha 76

Корсар

Кловерфилд, 10 / 10 Cloverfield Lane
Год выпуска: 2016
Производство: США. Paramount Picture, Bad Robot, Spectrum Effects
Жанр: Ужасы, фантастика, триллер, драма, детектив
Продолжительность: 01:43:34
Перевод: Авторский (одноголосый, закадровый) Андрей Гаврилов
Субтитры: отсутствуют
Режиссер: Дэн Трахтенберг / Dan Trachtenberg
В ролях: Джон Гудман, Мэри Элизабет Уинстэд, Джон Галлахер мл., Дуглас М. Гриффин, Сюзанн Крайер, Брэдли Купер, Сумали Монтано, Фрэнк Моттек.
Описание: Очнувшись после автомобильной аварии, юная прелестница обнаруживает себя прикованной наручниками к трубе центрального отопления в каком-то подвале. Случайным образом она оказывается вовлеченной в личную драму бывшего ветерана вьетнамской войны, окопавшегося в специально оборудованном бункере по воле обстоятельств непреодолимой силы в виде то ли ядерного удара, то ли атаки немецких снайперов. В условиях полной изоляции от внешнего мира девушке предстоит сделать нелегкий выбор между относительной безопасностью подземного убежища и попыткой выбраться на поверхность, возможно, уже ставшей непригодной для жизни.
Сэмпл , IMDB , КиноПоиск
Качество видео: BDRip
Контейнер: AVI
Видео кодек: XviD
Аудио кодек: AC3
Видео: 720x304 (2.35:1), 23,976 fps, XviD 73 ~1566 kbps avg, 0.298 bit/pixel
Аудио : 48 kHz, AC3, 6 ch, 448 kbps avg - А.Гаврилов
В 2018 году ожидается выход третьего фильма серии — фильм «Частица Бога»
Общее
Полное имя : 10.Cloverfield.Lane.2016.BDRip.Gavrilov.lumpeN.avi
Формат : AVI
Формат/Информация : Audio Video Interleave
Размер файла : 1,46 Гбайт
Продолжительность : 1 ч. 43 м.
Общий поток : 2023 Кбит/сек
Название фильма : lumpeN
Программа кодирования : VirtualDubMod 1.5.10.2 (build 2540/release)
Библиотека кодирования : VirtualDubMod build 2540/release
Видео
Идентификатор : 0
Формат : MPEG-4 Visual
Профиль формата : Advanced [email protected]
Параметр BVOP формата : 1
Параметр QPel формата : Нет
Параметр GMC формата : Без точки перехода
Параметр матрицы формата : Выборочная
Идентификатор кодека : XVID
Идентификатор кодека/Подсказка : XviD
Продолжительность : 1 ч. 43 м.
Битрейт : 1566 Кбит/сек
Ширина : 720 пикселей
Высота : 304 пикселя
Соотношение сторон : 2,35:1
Частота кадров : 23,976 (24000/1001) кадра/сек
Цветовое пространство : YUV
Субдискретизация насыщенности : 4:2:0
Битовая глубина : 8 бит
Тип развёртки : Прогрессивная
Метод сжатия : С потерями
Бит/(Пиксели*Кадры) : 0.298
Размер потока : 1,13 Гбайт (77%)
Библиотека кодирования : XviD 73
Аудио
Идентификатор : 1
Формат : AC-3
Формат/Информация : Audio Coding 3
Параметр Endianness формата : Big
Идентификатор кодека : 2000
Продолжительность : 1 ч. 43 м.
Вид битрейта : Постоянный
Битрейт : 448 Кбит/сек
Каналы : 6 каналов
Расположение каналов : Front: L C R, Side: L R, LFE
Частота : 48,0 КГц
Частота кадров : 31,250 кадров/сек (1536 SPF)
Битовая глубина : 16 бит
Метод сжатия : С потерями
Размер потока : 332 Мбайт (22%)
Выравнивание : Разделение по промежуткам
Продолжительность промежутка : 42 мс. (1,00 видеокадр)
Время предзагрузки промежутка : 500 мс.
Заголовок : rus - Gavrilov
ServiceKind/String : Complete Main
Download / Скачать

Хотите скачать бесплатно? Зарегистрируйтесь на сайте (ссылка на регистрацию). Pirat.ca - самый быстрый торрент трекер в рунете!

Как скачивать  ·   Что такое торрент  ·   Рейтинг и ограничения

Пост 11-Ноя-2017 23:08 (спустя 3 часа)

Топик был перенесен из форума Фильмы с Авторским переводом (Трюм) в форум Фильмы 2011 - 2016 г.г
gross1978
 

pvm

Флибустьер

Пост 12-Ноя-2017 03:53 (спустя 8 часов)

[Q] 

В 2018 году ожидается выход третьего фильма серии — фильм «Частица Бога»
А первая часть какая?
Добавлено спустя 5 минут 17 секунд:
Извиняюсь, вопрос снят.
[Профиль]  [ЛС] 
Показать сообщения:    
Ответить на тему

Текущее время: Сегодня 12:22

Часовой пояс: GMT + 4



Вы не можете начинать темы
Вы не можете отвечать на сообщения
Вы не можете редактировать свои сообщения
Вы не можете удалять свои сообщения
Вы не можете голосовать в опросах
Вы не можете прикреплять файлы к сообщениям
Вы не можете скачивать файлы

▼ Вниз