Уважаемый Гость!
Вы можете поддержать проект и зарегистрироваться у наших партнеров - онлайн-стратегия MyLands. При регистрации в игре Вы получите код, который сможете активировать после регистрации на pirat.ca и получить 1000 дублонов.

Ваш код:
6ce94c87b14c77f4c9d9415fb160accb369c92d9
 
     

Погром / Mayhem (Джо Линч / Joe Lynch) [2017 г., Ужасы, боевик, комедия, WEB-DLRip] DVO

Ответить на тему
 
Автор
Сообщение

Пост 12-Ноя-2017 11:41

[Q] 

Су-34

Гроза морей

-Погром / Mayhem- -Производство: США
Год выпуска: 2017 г.
Жанр: Ужасы, боевик, комедия
Продолжительность: 01:28:20
Мировая премьера: 13 марта 2017
Перевод: Любительский (двухголосый, закадровый) [RecentFilms]-Режиссёр: Джо Линч / Joe Lynch-В ролях: Стивен Юн, Самара Уивинг, Стивен Брэнд, Кэролайн Чикези, Керри Фокс, Даллас Робертс, Марк Фрост, Клер Левин, Андре Эриксен, Никола Кент-Описание: На человечество обрушился страшный вирус — заражённые совершенно не в состоянии себя контролировать. Ярость, похоть, страх и другие обычно сдерживаемые цивилизованным человеком эмоции и импульсы вырываются наружу, но через восемь часов действие вируса проходит.- -Качество видео: WEB-DLRip
Контейнер: AVI
Видео кодек: XviD
Аудио кодек: AC3
Видео: 720x304, 23,976 fps, ~1993 Kbps, 0.38 bit/pixel
Аудио: AC3, 48 kHz, 2 ch, 192 Kbps
Cубтитры: отсутствуют
General
Complete name : F:FilmsMayhem.2017.WEBRip.RecentFilmsMayhem.2017.WEBRip.RecentFilms.avi
Format : AVI
Format/Info : Audio Video Interleave
Format profile : OpenDML
File size : 1.35 GiB
Duration : 1h 28mn
Overall bit rate : 2 192 Kbps
Writing application : Lavf57.71.100
Video
ID : 0
Format : MPEG-4 Visual
Format profile : Advanced [email protected]
Format settings, BVOP : 1
Format settings, QPel : No
Format settings, GMC : No warppoints
Format settings, Matrix : Default (H.263)
Codec ID : XVID
Codec ID/Hint : XviD
Duration : 1h 28mn
Bit rate : 1 988 Kbps
Width : 720 pixels
Height : 304 pixels
Display aspect ratio : 2.40:1
Frame rate : 23.976 (24000/1001) fps
Color space : YUV
Chroma subsampling : 4:2:0
Bit depth : 8 bits
Scan type : Progressive
Compression mode : Lossy
Bits/(Pixel*Frame) : 0.379
Stream size : 1.23 GiB (91%)
Writing library : XviD 67
Audio
ID : 1
Format : AC-3
Format/Info : Audio Coding 3
Mode extension : CM (complete main)
Format settings, Endianness : Big
Codec ID : 2000
Duration : 1h 28mn
Bit rate mode : Constant
Bit rate : 192 Kbps
Channel(s) : 2 channels
Channel positions : Front: L R
Sampling rate : 48.0 KHz
Frame rate : 31.250 fps (1536 spf)
Bit depth : 16 bits
Compression mode : Lossy
Stream size : 121 MiB (9%)
Alignment : Aligned on interleaves
Interleave, duration : 32 ms (0.77 video frame)
Download / Скачать

Хотите скачать бесплатно? Зарегистрируйтесь на сайте (ссылка на регистрацию). Pirat.ca - самый быстрый торрент трекер в рунете!

Как скачивать  ·   Что такое торрент  ·   Рейтинг и ограничения

Пост 12-Ноя-2017 14:59 (спустя 3 часа)

Топик был перенесен из форума Зарубежное Кино (Трюм) в форум Новинки (HD|DVD|BD| TV|SAT|PDTV| - Rips)
ara1205
 

Yaroslav2014

Лоцман

Пост 12-Ноя-2017 17:01 (спустя 5 часов)

[Q] 

Кто нибудь смотрел, как фильм?
[Профиль]  [ЛС] 

Су-34 ®

Гроза морей

12807

Пост 12-Ноя-2017 20:58 (спустя 3 часа)

[Q] 

810493Кто нибудь смотрел, как фильм?
Кто-нибудь по любому смотрел и ты посмотри, потому как на вкус и цвет товарищей нет!
[Профиль]  [ЛС] 

Василек

Юнга

Пост 14-Ноя-2017 02:16 (спустя 1 день 5 часов)

[Q] 

Сказать что это бред - значит не сказать ничего. Интересно раздающий смотрел ЭТО ???
[Профиль]  [ЛС] 

miik

Шкипер

Пост 15-Ноя-2017 23:45 (спустя 1 день 21 час)

[Q] 

Как это смотреть ели даже не понятно что это?
[Профиль]  [ЛС] 

martiros

Штурман

Пост 16-Ноя-2017 15:30 (спустя 15 часов)

[Q] 

Раздающий мог и не смотреть, в его функционал не входит просмотр, и даже если кино помойка, все равно, раздающему благодарность за проделанную работу.
[Профиль]  [ЛС] 

raul kurochka

Флибустьер

Пост 17-Ноя-2017 01:37 (спустя 10 часов)

[Q] 

811699
810493Кто нибудь смотрел, как фильм?
Кто-нибудь по любому смотрел и ты посмотри, потому как на вкус и цвет товарищей нет!
Эмм... А я вот люблю отзывы товарищей по злодействам морским почитать! И, к стати, не всегда обилие отрицательных отзывов становится препятствием для просмотра, и наоборот.
И с тем что все "фломастеры" на вкус и цвет разные - тоже согласен, разумеется. Однако тех кто (естественно согласно моему мнению) обладает отвратительным вкусом и не в состоянии отличить кино-понос от кино-ленты я бы с остервенелым удовольствием, тихими долгими вечерами, опустошал бы содержимое глазниц десертной ложечкой и скармливал бы глазные яблоки пёсикам дворовым)))
Всем хорошего кинчика "по вкусу"!
Лови бочку

_________________
...ЧО ТАКОЙ СЕРЬЕЗНЫЙ???
[Профиль]  [ЛС] 

Madwarg

Морской Волк

Пост 17-Ноя-2017 22:01 (спустя 20 часов)

[Q] 

Нее, ну нафиг

_________________
Я не Морской Волк, я Корсар! Просто немногословный... ;)
[Профиль]  [ЛС] 
Показать сообщения:    
Ответить на тему

Текущее время: Сегодня 00:51

Часовой пояс: GMT + 4



Вы не можете начинать темы
Вы не можете отвечать на сообщения
Вы не можете редактировать свои сообщения
Вы не можете удалять свои сообщения
Вы не можете голосовать в опросах
Вы не можете прикреплять файлы к сообщениям
Вы не можете скачивать файлы

▼ Вниз