Уважаемый Гость!
Вы можете поддержать проект и зарегистрироваться у наших партнеров - онлайн-стратегия MyLands. При регистрации в игре Вы получите код, который сможете активировать после регистрации на pirat.ca и получить 1000 дублонов.

Ваш код:
6ce94c87b14c77f4c9d9415fb160accb369c92d9
 
     

Чернобыль 2. Зона отчуждения / Сезон 2 / Серии: 1-4 из 8 (Андерс Банке / Anders Banke) [2017, триллер, фантастика, WEBRip 720p]

Ответить на тему
 
Автор
Сообщение

Пост 12-Ноя-2017 20:03

[Q] 

kugesan

Чернобыль 2. Зона отчуждения
«Никто не вернется прежним»
- Русское название: Чернобыль: Зона отчуждения
Страна: Россия
Режиссер / Телекомпания: ТНТ
Год выпуска: 2014
Жанр: триллер, фантастика
Продолжительность: ~ 00:38:00 мин серия-Премьера (РФ): 13 октября 2014-Режиссер: Андерс Банке / Anders Banke
В главных ролях: Кристина Казинская, Анвар Халилулаев, Сергей Романович, Валерия Дмитриева, Константин Давыдов, Евгений Стычкин, Владимир Епифанцев-Описание фильма:
Действие разворачивается в США, где в результате взрыва на атомной станции образовалась гигантская Зона отчуждения, заселённая бандитами - государство при этом погрузилось в хаос гражданской войны. Перед всеми, кто попадает на эту территорию, встает вопрос жизни и смерти – или вопрос борьбы за личную свободу против диктатуры насилия.-Качество видео: WEBRip 720p
Формат: MKV
Видеокодек: H.264
Аудиокодек: AC3
Видео: MPEG4 AVC Video, H264, 16:9, 1280x720, 25 fps, ~3500 kbps 0.152 bit/pixel
Аудио: AC3 Dolby Digital, 48 kHz, 2/0 (L,R) ch, 192 kbps
- -
Код:
Общее
Уникальный идентификатор                 : 213186556185776223213772397930658364462 (0xA0623CBB193CD3D6AA4491553DB77C2E)
Полное имя                               : E:\_Сериалы\_Сериалы\Чернобыль\Chernobyl.S.02.Zona.otchuzhdeniya.2017.WEBRip.(720p).Nikolspup\Chernobyl.S02.Zona.otchuzhdeniya.(01.seriya).2017.WEBRip.(720p).Nikolspup.mkv
Формат                                   : Matroska
Версия формата                           : Version 2
Размер файла                             : 1,02 Гбайт
Продолжительность                        : 38 м. 41 с.
Общий поток                              : 3771 Кбит/сек
Программа кодирования                    : Lavf54.63.104
Библиотека кодирования                   : Lavf54.63.104
Видео
Идентификатор                            : 1
Формат                                   : AVC
Формат/Информация                        : Advanced Video Codec
Профиль формата                          : [email protected]
Настройки формата                        : CABAC / 1 Ref Frames
Параметр CABAC формата                   : Да
Параметр RefFrames формата               : 1 кадр
Параметр GOP формата                     : M=1, N=12
Идентификатор кодека                     : V_MPEG4/ISO/AVC
Продолжительность                        : 38 м. 41 с.
Битрейт                                  : 3504 Кбит/сек
Ширина                                   : 1280 пикселей
Высота                                   : 720 пикселей
Соотношение сторон                       : 16:9
Режим частоты кадров                     : Постоянный
Частота кадров                           : 25,000 кадров/сек
Стандарт вещания                         : Component
Цветовое пространство                    : YUV
Субдискретизация насыщенности            : 4:2:0
Битовая глубина                          : 8 бит
Тип развёртки                            : Прогрессивная
Бит/(Пиксели*Кадры)                      : 0.152
Размер потока                            : 970 Мбайт (93%)
Default                                  : Нет
Forced                                   : Нет
Цветовой диапазон                        : Limited
Аудио
Идентификатор                            : 2
Формат                                   : AC-3
Формат/Информация                        : Audio Coding 3
Идентификатор кодека                     : A_AC3
Продолжительность                        : 38 м. 41 с.
Вид битрейта                             : Постоянный
Битрейт                                  : 192 Кбит/сек
Каналы                                   : 2 канала
Расположение каналов                     : Front: L R
Частота                                  : 48,0 КГц
Частота кадров                           : 31,250 кадров/сек (1536 SPF)
Битовая глубина                          : 16 бит
Метод сжатия                             : С потерями
Размер потока                            : 53,1 Мбайт (5%)
Язык                                     : Russian
ServiceKind/String                       : Complete Main
Default                                  : Да
Forced                                   : Нет
-
-Скриншоты:
-
Раздача ведётся путём добавления новых серий; при каждом добавлении создаётся новый торрент.
Чтобы начать докачку новой серии, пользователям необходимо сделать следующее:
1. остановить скачивание,
2. удалить старый торрент у себя из клиента (старые серии удалять не надо),
3. скачать новый торрент и запустить его у себя в клиенте вместо старого, при этом указать клиенту путь в старую папку, куда и должно происходить скачивание новых серий.
Ваш клиент при этом должен произвести хеширование (проверку) старой папки (если не производит сам - помогите ему сделать это), и будет докачивать только те серии которых у вас ещё нет. Старые серии при этом не удаляются, а продолжают раздаваться!
Eсли вы уже удалили старые серии, то предотвратить повторную закачку старых серий можно, отжав галочку в соответствующих местах при запуске нового торрента. По возможности, желательно не удалять старые серии как можно дольше, чтобы релизёр не столько продолжал раздавать старые серии, а смог сконцентрироваться на новых.
Совет для тех, кто не хочет ждать перехеширования:
Создайте ещё одну папку рядом с папкой сериала (рядом, а не в ней!!!). Каждую новую серию после удачной загрузки копируйте в новую папку так чтобы ваша основная папка всегда была пуста. Когда ваш новый торрент предложит вам закачать все файлы, выберете только последнюю. Для сидирования же укажите адрес новой папки.
Как закачать отдельный файл из торрента или докачать ранее пропущенные файлы торрента!
-
1. Открыть торрент
2. Снять галки с тех файлов торрента, которые мы не хотим закачивать. Оставляем только на нужных нам файлах (файле).
3. Нажать О.К.
В клиенте utorrent
Инструкция
1) Открыть торрент

2) Снять галки с тех файлов торрента, которые мы не хотим закачивать:
* либо вручную, снимая с каждого файла галку( скрин №1)
* либо, нажав кнопку "Снять метки (Select None)", сняв сразу со всех файлов(скрин №2)
№1

№2

Оставляем только на нужных нам файлах (файле).

3)Нажать О.К
-Приятного просмотра!!!-
Download / Скачать

Хотите скачать бесплатно? Зарегистрируйтесь на сайте (ссылка на регистрацию). Pirat.ca - самый быстрый торрент трекер в рунете!

Как скачивать  ·   Что такое торрент  ·   Рейтинг и ограничения



Последний раз редактировалось: kugesan (2017-11-18 08:51), всего редактировалось 1 раз

nikromonger

Корсар

Пост 12-Ноя-2017 22:45 (спустя 2 часа 42 минуты)

[Q] 

Давно ждал продолжения.
Интересный сюжет в первом сезоне.
Надеюсь продолжение не подкачает! aa Всем качать!!!
[Профиль]  [ЛС] 

bolobol

Флибустьер

112

Пост 14-Ноя-2017 02:41 (спустя 1 день 3 часа)

[Q] 

чё бузова тут забыла?? Всё начало сериала испортила

_________________
[Профиль]  [ЛС] 

bjb13

Корсар

338

Пост 16-Ноя-2017 20:56 (спустя 2 дня 18 часов)

[Q] 

Наконец-то, надеюсь нормальное продолжение Автору респект!!!
[Профиль]  [ЛС] 

unitel1

Штурман

Пост 18-Ноя-2017 11:50 (спустя 1 день 14 часов)

[Q] 

Огромное-преогромное! Спасибо!!! Классный сериал. Лови бочку
На форуме  [Профиль]  [ЛС] 

kugesan ®

61195

Пост 18-Ноя-2017 15:32 (спустя 3 часа)

[Q] 

Приятного просмотра!!!

_________________
В мире две бесконечности: вселенная и человеческая глупость - Альберт Эйнштен
«Можно вытащить человека из грязи, но нельзя вытащить грязь из человека»!
[Профиль]  [ЛС] 

DDoS55

Гроза морей

2964

Пост 20-Ноя-2017 15:17 (спустя 1 день 23 часа)

[Q] 

Спасибо!!! Супер!

_________________
VPN в Нидерландах в ЛС; Включайте в торрент клиенте: DHT, обмен пирами, шифрование, ip-фильтр
[Профиль]  [ЛС] 
Показать сообщения:    
Ответить на тему

Текущее время: Сегодня 00:54

Часовой пояс: GMT + 4



Вы не можете начинать темы
Вы не можете отвечать на сообщения
Вы не можете редактировать свои сообщения
Вы не можете удалять свои сообщения
Вы не можете голосовать в опросах
Вы не можете прикреплять файлы к сообщениям
Вы не можете скачивать файлы

▼ Вниз