Уважаемый Гость!
Вы можете поддержать проект и зарегистрироваться у наших партнеров - онлайн-стратегия MyLands. При регистрации в игре Вы получите код, который сможете активировать после регистрации на pirat.ca и получить 1000 дублонов.

Ваш код:
6ce94c87b14c77f4c9d9415fb160accb369c92d9
 
     

Романовы. Венценосная Семья (Глеб Панфилов) [2000 г., драма, биография, история, DVDRip] [Лицензия]

Ответить на тему
 
Автор
Сообщение

Пост 13-Ноя-2017 02:13

[Q] 

vamo

Штурман

Романовы. Венценосная Семья «История семьи... История любви... История России» Производство: Россия / Госкино, Вера
Год выпуска: 2000
Жанр: драма, биография, история
Продолжительность: 02:15:16
Перевод не требуется [Лицензия]
Режиссёр: Глеб Панфилов
В ролях: Александр Галибин, Линда Беллингхэм, Володя Грачев, Юлия Новикова, Ксения Качалина, Ольга Васильева, Ольга Будина, Игорь Дмитриев, Вячеслав Богачев, Юрий Каюров, Валерий Хромушкин, Николай Пеньков, Олег Басилашвили, Иван Саутов, Валерий Доронин, Александр Липов, Максим Панфилов, Юрий Клепиков, Владимир Конкин, Валерий Матвеев, Игорь Регнер, Эрнст Романов, Андрей Харитонов, Владимир Ширяев, Ребекка Лейси, Вячеслав Гарин, Виктор Тейдер, Святослав Кузьменко, Всеволод Соболев, Кирилл Литовченко, Андрей Чуманов, Михаил Ефремов, Анатолий Сливников, Александр Алексеев, Юрий Орлов, Аристарх Ливанов, Александр Филиппенко, Кирилл Козаков, Валерий Кухарешин, Игорь Скляр, Анатолий Панфилов, Евгений Герасимов, Любомирас Лауцявичус, Виталий Вашедский, Игорь Лифанов, Владислав Омарченков, Алексей Солпанов, Алексей Панин, Саша Адлер, Сергей Дьячков, Олег Березкин, Николай Панфилов, Дмитрий Воронов, Василий Бездушный, Вернер Оамер, Владимир Троянов, Дмитрий Бобров
Описание: Этот фильм - история жизни и смерти последнего российского царя и его семьи. Частная жизнь императора Николая II. Серия семейных портретов в интерьере. Интерьеры постепенно меняются от царскосельских золоченых рам до подвальной домовины ипатьевского дома. Считается, что с каждой фотографией из человека уходит некоторое количество жизни. Фильм Глеба Панфилова – это череда парадных и этюдных фотопортретов, где все они – Ники, Аликс, дети - льнут друг к другу в течении их жизни, засасываемой в объектив камеры. До тех пор, пока не придет главный фотограф, Юровский (его фотоателье было самым известным в Екатеринбурге), и не расставит их для окончательно последнего снимка – из десятка стволов.
Главные большевики страны, конспиративно совещающиеся в кулуарах Большого Театра, напоминают кукол из популярной телевизионной программы. От эпизода к эпизоду меняются люди, окружающие семью: от лиц – к харям, от фамилий – к "не зови батько", к Иванам, не помнящим родства. Историческая трагедия переплетается с личной: этот глубоко несчастный, чуждый и власти, и революции, человек фактически оказался причастным к той катастрофе, что потрясла страну.
Качество видео: DVDRip
Контейнер: AVI
Видео кодек: XviD
Аудио кодек: AC3
Видео: 720x432 (1.67:1), 25 fps, XviD build 67 ~1863 kbps avg, 0.24 bit/pixel
Аудио: 48 kHz, AC3 Dolby Digital, 3/2 (L,C,R,l,r) + LFE ch, ~448 kbps
Cубтитры: английские [внешние]
Формат : AVI
Формат/Информация : Audio Video Interleave
Профиль формата : OpenDML
Размер файла : 2,19 Гбайт
Продолжительность : 2 ч. 15 м.
Общий поток : 2318 Кбит/сек
Программа кодирования : Lavf57.71.100
Примечание : Rip by Basma4i
Видео
Идентификатор : 0
Формат : MPEG-4 Visual
Профиль формата : Advanced [email protected]
Параметр BVOP формата : Нет
Параметр QPel формата : Нет
Параметр GMC формата : Без точки перехода
Параметр матрицы формата : Default (H.263)
Идентификатор кодека : XVID
Идентификатор кодека/Подсказка : XviD
Продолжительность : 2 ч. 15 м.
Битрейт : 1860 Кбит/сек
Ширина : 720 пикселей
Высота : 432 пикселя
Соотношение сторон : 5:3
Частота кадров : 25,000 кадров/сек
Цветовое пространство : YUV
Субдискретизация насыщенности : 4:2:0
Битовая глубина : 8 бит
Тип развёртки : Прогрессивная
Метод сжатия : С потерями
Бит/(Пиксели*Кадры) : 0.239
Размер потока : 1,76 Гбайт (80%)
Заголовок : Rus
Библиотека кодирования : XviD 67
Аудио
Идентификатор : 1
Формат : AC-3
Формат/Информация : Audio Coding 3
Расширение режима : CM (complete main)
Параметр Endianness формата : Big
Идентификатор кодека : 2000
Продолжительность : 2 ч. 15 м.
Вид битрейта : Постоянный
Битрейт : 448 Кбит/сек
Каналы : 6 каналов
Расположение каналов : Front: L C R, Side: L R, LFE
Частота : 48,0 КГц
Частота кадров : 31,250 кадров/сек (1536 spf)
Битовая глубина : 16 бит
Метод сжатия : С потерями
Размер потока : 433 Мбайт (19%)
Выравнивание : Соединение по промежуткам
Продолжительность промежутка : 32 мс. (0,80 видеокадр)
Заголовок : Rus
Download / Скачать

Хотите скачать бесплатно? Зарегистрируйтесь на сайте (ссылка на регистрацию). Pirat.ca - самый быстрый торрент трекер в рунете!

Как скачивать  ·   Что такое торрент  ·   Рейтинг и ограничения

Пост 13-Ноя-2017 10:18 (спустя 8 часов)

Топик был перенесен из форума Наше кино (Трюм) в форум Российские фильмы
ara1205
 

jofrei53

Флибустьер

Пост 14-Ноя-2017 12:43 (спустя 1 день 10 часов)

[Q] 

Спасибо! Заинтересовало... Наслышан... Нужно посмотреть. Автору респект!!! Лови бочку
[Профиль]  [ЛС] 
Показать сообщения:    
Ответить на тему

Текущее время: Сегодня 00:51

Часовой пояс: GMT + 4



Вы не можете начинать темы
Вы не можете отвечать на сообщения
Вы не можете редактировать свои сообщения
Вы не можете удалять свои сообщения
Вы не можете голосовать в опросах
Вы не можете прикреплять файлы к сообщениям
Вы не можете скачивать файлы

▼ Вниз