Уважаемый Гость!
Вы можете поддержать проект и зарегистрироваться у наших партнеров - онлайн-стратегия MyLands. При регистрации в игре Вы получите код, который сможете активировать после регистрации на pirat.ca и получить 1000 дублонов.

Ваш код:
d49a3625bbdee1b82b14274f97c375f8b2b2ee4c
 
     

Готэм / Gotham / Сезон 4 / Серии: 1-8 из 22 (Дэнни Кэннон / Danny Cannon) [2017г., триллер, драма, криминал, WEBDLRip] MVO (BaibaKo) + Original (Eng) (Обновляемая)

Ответить на тему
 
Автор
Сообщение

Пост 13-Ноя-2017 14:06

[Q] 

kugesan

Готэм / Gotham
«The good. The evil. The beginning»
- Страна: США
Год выпуска: 2017
Жанр: триллер, драма, криминал, ...
Продолжительность: ~ 00:44:00 мин серия-Озвучка: Студия
Перевод: Многоголосый закадровый, профессиональный
Оригинальный аудиопоток: английский-Перевод: Янина Галицкая
Озвучка: Ольга Мотрич, Светлана Доманова, Сергей Корчак и Алексей Кузнецов
Монтаж: Виталий Мартыняк
Обложка: tvblog-Премьера (мир): 26 июля 2014, ...
Премьера (РФ): 1 декабря 2015-Режиссер: Дэнни Кэннон / Danny Cannon, Т.Дж. Скотт / T.J. Scott , Эгил Эгилссон / Eagle Egilsson, ...
В главных ролях: Бен МакКензи, Шон Пертуи, Робин Тейлор, Забрина Гевара, Эрин Ричардс, Донал Лог, Джада Пинкетт Смит, Дэвид Мазоуз, Камрен Бикондова, Кори Майкл Смит и др.-Описание фильма:
Новый сезон сериала Готэм, новые враги один страшнее другого и все прямиком со страниц комиксов. А с тех пор, как Брюс ступил на путь супергероя, враги стали ещё ужаснее. Кроме заявленного уже Пугало, в 4 сезоне появится профессор Пиг - серийный маньяк - убийца, «улучшающий» людей с помощью хирургических манипуляций. Из таких людей он создал персональную армию «куклотронов». На самом деле это уже не люди, органические роботы с кукольными масками вместо лиц, которые не чувствуют боли и не умеют думать. С таким ужасным врагом Брюсу некогда будет отдыхать.-
Качество видео: WEBDLRip
Формат: AVI
Видеокодек: XviD
Аудиокодек: AC-3
Видео: MPEG-4 Visual at 2000 Кбит/сек: 720 x 400 (1.800) at 23.976 fps, 0.29 Бит/Пиксели
Аудио Rus: AC-3 at 384 Кбит/сек: 6 каналов, 48,0 КГц |BaibaKo|
Аудио Eng: AC-3 at 384 Кбит/сек: 6 каналов, 48,0 КГц |Original|
-
-
  • Пингвинов Мир
  • Жнец страха
  • Кто прятался под масками
  • Голова демона
  • Путь клинка
  • Полдень в день борова
  • День в Нэрроуз
  • Прекрати бить себя
-
Общее
Полное имя : E:\_Сериалы\_Сериалы\Готэм\Gotham.s04.WEB-DLRip.Rus.Eng.BaibaKo\Gotham.s04e01.WEB-DLRip.Rus.Eng.BaibaKo.avi
Формат : AVI
Формат/Информация : Audio Video Interleave
Размер файла : 855 Мбайт
Продолжительность : 42 м. 59 с.
Общий поток : 2781 Кбит/сек
Программа кодирования : VirtualDubMod 1.5.10.3 | www.virtualdub-fr.org || (build 2550/release)
Библиотека кодирования : VirtualDubMod build 2550/release
Видео
Идентификатор : 0
Формат : MPEG-4 Visual
Профиль формата : Advanced [email protected]
Настройки формата : BVOP2
Параметр BVOP формата : 2
Параметр QPel формата : Нет
Параметр GMC формата : Без точки перехода
Параметр матрицы формата : Default (MPEG)
Идентификатор кодека : XVID
Идентификатор кодека/Подсказка : XviD
Продолжительность : 42 м. 59 с.
Битрейт : 1999 Кбит/сек
Ширина : 720 пикселей
Высота : 400 пикселей
Соотношение сторон : 16:9
Частота кадров : 23,976 (24000/1001) кадра/сек
Цветовое пространство : YUV
Субдискретизация насыщенности : 4:2:0
Битовая глубина : 8 бит
Тип развёртки : Прогрессивная
Метод сжатия : С потерями
Бит/(Пиксели*Кадры) : 0.290
Размер потока : 615 Мбайт (72%)
Библиотека кодирования : XviD 1.2.1 (UTC 2008-12-04)
Аудио #1
Идентификатор : 1
Формат : AC-3
Формат/Информация : Audio Coding 3
Параметр Endianness формата : Big
Идентификатор кодека : 2000
Продолжительность : 42 м. 59 с.
Вид битрейта : Постоянный
Битрейт : 384 Кбит/сек
Каналы : 6 каналов
Расположение каналов : Front: L C R, Side: L R, LFE
Частота : 48,0 КГц
Частота кадров : 31,250 кадров/сек (1536 SPF)
Битовая глубина : 16 бит
Метод сжатия : С потерями
Размер потока : 118 Мбайт (14%)
Выравнивание : Разделение по промежуткам
Продолжительность промежутка : 42 мс. (1,00 видеокадр)
Время предзагрузки промежутка : 500 мс.
ServiceKind/String : Complete Main
Аудио #2
Идентификатор : 2
Формат : AC-3
Формат/Информация : Audio Coding 3
Параметр Endianness формата : Big
Идентификатор кодека : 2000
Продолжительность : 42 м. 59 с.
Вид битрейта : Постоянный
Битрейт : 384 Кбит/сек
Каналы : 6 каналов
Расположение каналов : Front: L C R, Side: L R, LFE
Частота : 48,0 КГц
Частота кадров : 31,250 кадров/сек (1536 SPF)
Битовая глубина : 16 бит
Метод сжатия : С потерями
Размер потока : 118 Мбайт (14%)
Выравнивание : Разделение по промежуткам
Продолжительность промежутка : 42 мс. (1,00 видеокадр)
Время предзагрузки промежутка : 500 мс.
ServiceKind/String : Complete Main
-
-Скриншоты:
-
Раздача ведётся путём добавления новых серий; при каждом добавлении создаётся новый торрент.
Чтобы начать докачку новой серии, пользователям необходимо сделать следующее:
1. остановить скачивание,
2. удалить старый торрент у себя из клиента (старые серии удалять не надо),
3. скачать новый торрент и запустить его у себя в клиенте вместо старого, при этом указать клиенту путь в старую папку, куда и должно происходить скачивание новых серий.
Ваш клиент при этом должен произвести хеширование (проверку) старой папки (если не производит сам - помогите ему сделать это), и будет докачивать только те серии которых у вас ещё нет. Старые серии при этом не удаляются, а продолжают раздаваться!
Eсли вы уже удалили старые серии, то предотвратить повторную закачку старых серий можно, отжав галочку в соответствующих местах при запуске нового торрента. По возможности, желательно не удалять старые серии как можно дольше, чтобы релизёр не столько продолжал раздавать старые серии, а смог сконцентрироваться на новых.
Совет для тех, кто не хочет ждать перехеширования:
Создайте ещё одну папку рядом с папкой сериала (рядом, а не в ней!!!). Каждую новую серию после удачной загрузки копируйте в новую папку так чтобы ваша основная папка всегда была пуста. Когда ваш новый торрент предложит вам закачать все файлы, выберете только последнюю. Для сидирования же укажите адрес новой папки.
Как закачать отдельный файл из торрента или докачать ранее пропущенные файлы торрента!
-
1. Открыть торрент
2. Снять галки с тех файлов торрента, которые мы не хотим закачивать. Оставляем только на нужных нам файлах (файле).
3. Нажать О.К.
В клиенте utorrent
Инструкция
1) Открыть торрент

2) Снять галки с тех файлов торрента, которые мы не хотим закачивать:
* либо вручную, снимая с каждого файла галку( скрин №1)
* либо, нажав кнопку "Снять метки (Select None)", сняв сразу со всех файлов(скрин №2)
№1

№2

Оставляем только на нужных нам файлах (файле).

3)Нажать О.К
-Приятного просмотра!!!-
Download / Скачать

Хотите скачать бесплатно? Зарегистрируйтесь на сайте (ссылка на регистрацию). Pirat.ca - самый быстрый торрент трекер в рунете!

Как скачивать  ·   Что такое торрент  ·   Рейтинг и ограничения

Показать сообщения:    
Ответить на тему

Текущее время: Сегодня 19:49

Часовой пояс: GMT + 4



Вы не можете начинать темы
Вы не можете отвечать на сообщения
Вы не можете редактировать свои сообщения
Вы не можете удалять свои сообщения
Вы не можете голосовать в опросах
Вы не можете прикреплять файлы к сообщениям
Вы не можете скачивать файлы

▼ Вниз