Уважаемый Гость!
Вы можете поддержать проект и зарегистрироваться у наших партнеров - онлайн-стратегия MyLands. При регистрации в игре Вы получите код, который сможете активировать после регистрации на pirat.ca и получить 1000 дублонов.

Ваш код:
a2be712514e46eae310418ece8905345dbacafb8
 
     

Хикок / Hickok (Тимоти Вудворд мл. / Timothy Woodward Jr.) [2017 г., вестерн, WEB-DLRip] MVO

Ответить на тему
 
Автор
Сообщение

Пост 21-Ноя-2017 22:45

[Q] 

ara1205

-Хикок / Hickok-- Производство: США
Год выпуска: 2017 г.
Жанр: вестерн
Продолжительность: 01:28:20
Перевод: Любительский (многоголосый, закадровый) [Студия "Paradox" & Omskbird records]-Режиссёр: Тимоти Вудворд мл. / Timothy Woodward Jr.-В ролях: Люк Хемсворт, Трэйси Д. Эдкинс, Крис Кристофферсон, Брюс Дерн, Кэмерон Ричардсон, Каиви Лайман, Хантер Фишер, Роберт Катрини, Бритен Саймонс, Шона Крэйг-Описание: Известный герой Джеймс Батлер Хикок по прозвищу «Дикий Билл» родился в небольшом городке Гомер, штат Иллинойс. Через эти места бежали чернокожие рабы с юга на север. Поэтому в городке всегда было крайне неспокойно и Хикок с юности мог постоять за себя. Парень великолепно стрелял, а в драке был просто неистовым. Потом он уехал в Канзас, где вместе с генералом Лейном сражался против рабовладельцев. Когда началась гражданская война Джейм был одним из лучших разведчиков северян. Интриги, предательство, погони и перестрелки - все это постоянно сопровождает деятельность Джеймса, который больше всего уважал справедливость.- -Качество видео: WEB-DLRip
Контейнер: AVI
Видео кодек: XviD
Аудио кодек: AC3
Видео: 720х304, 23,976 fps, 1825 Kbps, 0.348 bits/pixel
Аудио: 48 kHz, AC3 Dolby Digital, 2 ch, 384 Kbps
Cубтитры: отсутствуют-
Общее
Полное имя : C:\Users\Admin\Pictures\Хикок\Hickok.2017.WEB-DLRip.avi
Формат : AVI
Формат/Информация : Audio Video Interleave
Размер файла : 1,37 Гбайт
Продолжительность : 1 ч. 28 м.
Общий поток : 2218 Кбит/сек
Программа кодирования : VirtualDubMod 1.5.10.3 | www.virtualdub-fr.org || (build 2550/release)
Видео
Идентификатор : 0
Формат : MPEG-4 Visual
Профиль формата : Advanced [email protected]
Параметр BVOP формата : 1
Параметр QPel формата : Нет
Параметр GMC формата : Без точки перехода
Параметр матрицы формата : Выборочная
Идентификатор кодека : XVID
Идентификатор кодека/Подсказка : XviD
Продолжительность : 1 ч. 28 м.
Битрейт : 1825 Кбит/сек
Ширина : 720 пикселей
Высота : 304 пикселя
Соотношение сторон : 2,35:1
Частота кадров : 23,976 кадра/сек
Цветовое пространство : YUV
Субдискретизация насыщенности : 4:2:0
Битовая глубина : 8 бит
Тип развёртки : Прогрессивная
Метод сжатия : С потерями
Бит/(Пиксели*Кадры) : 0.348
Размер потока : 1,13 Гбайт (82%)
Библиотека кодирования : XviD 1.2.1 (UTC 2008-12-04)
Аудио
Идентификатор : 1
Формат : AC-3
Формат/Информация : Audio Coding 3
Расширение режима : CM (complete main)
Параметр Endianness формата : Big
Идентификатор кодека : 2000
Продолжительность : 1 ч. 28 м.
Вид битрейта : Постоянный
Битрейт : 384 Кбит/сек
Каналы : 2 канала
Расположение каналов : Front: L R
Частота : 48,0 КГц
Битовая глубина : 16 бит
Метод сжатия : С потерями
Размер потока : 243 Мбайт (17%)
Выравнивание : Разделение по промежуткам
Продолжительность промежутка : 42 мс. (1,00 видеокадр)
Время предзагрузки промежутка : 500 мс.
-
-
Download / Скачать

Хотите скачать бесплатно? Зарегистрируйтесь на сайте (ссылка на регистрацию). Pirat.ca - самый быстрый торрент трекер в рунете!

Как скачивать  ·   Что такое торрент  ·   Рейтинг и ограничения

Кристина119

Гроза морей

Пост 23-Ноя-2017 10:55 (спустя 1 день 12 часов)

[Q] 

Как фильм??? Лови бочку
[Профиль]  [ЛС] 

Окакий

Лоцман

Пост 25-Ноя-2017 01:38 (спустя 1 день 14 часов)

[Q] 

Самый скучный вестерн
[Профиль]  [ЛС] 

usya5

Корсар

Пост 25-Ноя-2017 12:11 (спустя 10 часов)

[Q] 

812699Самый скучный вестерн
тогда смотреть не будем,
раздающему за труды
Добавлено спустя 57 секунд:
забыл штампик Лови бочку
[Профиль]  [ЛС] 

Роман Чистов

Шкипер

Пост 02-Дек-2017 15:51 (спустя 7 дней)

[Q] 

Мдя... В Штатах разучились снимать вестерны. Актеры разучились играть. Костюмеры, гримеры и консультанты - не могут грамотно создать имидж эпохи (металлокерамика во рту у мэра изрядно удивила). Сценаристы - писать интересные (И ЛОГИЧНЫЕ!) сценарии. Это не искусство. Трафик потрачен зря!
[Профиль]  [ЛС] 

Пост 13-Янв-2018 10:32 (спустя 1 месяц 10 дней)

Топик был перенесен из форума Новинки (HD|DVD|BD| TV|SAT|PDTV| - Rips) в форум Фильмы 2010 - 2017 г.г.
aleksey99
 
Показать сообщения:    
Ответить на тему

Текущее время: Сегодня 16:18

Часовой пояс: GMT + 4



Вы не можете начинать темы
Вы не можете отвечать на сообщения
Вы не можете редактировать свои сообщения
Вы не можете удалять свои сообщения
Вы не можете голосовать в опросах
Вы не можете прикреплять файлы к сообщениям
Вы не можете скачивать файлы

▼ Вниз