Уважаемый Гость!
Вы можете поддержать проект и зарегистрироваться у наших партнеров - онлайн-стратегия MyLands. При регистрации в игре Вы получите код, который сможете активировать после регистрации на pirat.ca и получить 1000 дублонов.

Ваш код:
26839cd8c6b4848714d1d2f8fd66233fc251c7ab
 
     

Ходячие мертвецы / The Walking Dead / Сезон 8 / Серии: 1-7 из 16 (Грег Никотеро / Greg Nicotero) [2017г., ужасы, триллер, драма, WEB-DLRip] MVO (LostFilm) + Original (Eng) [обновляемая]

Ответить на тему
 
Автор
Сообщение

Пост 22-Ноя-2017 17:31

[Q] 

kugesan

Ходячие мертвецы
The Walking Dead

«Fight the dead. Fear the living.»
- Страна: США
Год выпуска: 2017
Жанр: Ужасы, Триллер, Драма, Приключения ...-Озвучка: Студия
Перевод: Многоголосый закадровый, профессиональный
Оригинальный аудиопоток: английский
Продолжительность: ~ 00:47:00 мин серия-Премьера (мир): 31 октября 2010
Премьера (РФ): 4 ноября 2010-Режиссер: Грег Никотеро / Greg Nicotero, Эрнест Р. Дикерсон / Ernest R. Dickerson, Гай Ферленд / Guy Ferland, ...
В главных ролях: Эндрю Линкольн (Рик Граймс), Стивен Юн (Гленн Ри), Чендлер Риггз (Карл Граймс), Норман Ридус (Дэрил Диксон), Мелисса МакБрайд (Кэрол Пелетье), Лорен Коэн (Мэгги Грин), Сара Уэйн Кэллис (Лори Граймс), Лори Холден (Андреа), Эмили Кинни (Бет Грин), Данаи Гурира (Мишонн), Дэвид Моррисси (Губернатор), Джон Бернтал (Шейн Волш).-Описание фильма:
Действие сериала разворачивается в первые месяцы после наступления зомби-апокалипсиса. Помощник шерифа Рик Граймс приходит в себя после длительной комы и понимает, что находится в опустевшей и разоренной больнице совершенно один. За то время, пока он пребывал без сознания, привычный мир был разрушен страшной эпидемией, о причинах наступления которой никто не знает. По дороге домой, где Рик надеется встретить жену и сына, он натыкается на множество трупов — как лежащих на земле, так и уже оживших. Затем Граймс знакомится со своим соседом Морганом, который объясняет ему новые правила жизни: не шуметь, не привлекать внимание, а в случае нападения зомби сделать все, чтобы уничтожить его. И ни при каких условиях не допускать того, чтобы быть укушенным — жертвы атаки тоже превращаются в зомби. Проведя ночь с Морганом и его сыном, Рик отправляется в Атланту на поиски семьи. Он еще не знает, что впереди его ждут долгие скитания по уничтоженной стране в компании самых разных людей, для которых он станет лидером и защитником. Более того, никто из группы выживших не подозревает, что ходячие — это еще не самое страшное зло нового мира...
-Качество видео: WEB-DLRip
Формат: AVI
Видеокодек: XviD
Аудиокодек: Mp3
Видео: MPEG-4 Visual at 1385 Кбит/сек, 720 x 400 (1.800) at 23.976 fps, 0.20 Бит/Пиксели
Аудио Rus: MPEG Audio at 128 Кбит/сек: 2 канала, 48,0 КГц |LostFilm|
Аудио Eng: MPEG Audio at 128 Кбит/сек: 2 канала, 48,0 КГц |Original|
-VA - Ходячие мертвецы
Rameses B - The Walking Dead
Сериал "Ходячие мертвецы / The Walking Dead " на треке Pirat.ca-
  • Милосердие
  • Проклятые
  • Монстры
  • Обычный парень
  • Большой и страшный ты
  • Король, вдова и Рик
  • "После" настало
-
Общее
Полное имя : E:\_Сериалы\_Сериалы\Ходячие Мертвецы\TWD (Season 08) LOST\TWD.S08E01.XviD.LOST.(qqss44).avi
Формат : AVI
Формат/Информация : Audio Video Interleave
Размер файла : 563 Мбайт
Продолжительность : 47 м. 14 с.
Общий поток : 1665 Кбит/сек
Программа кодирования : VirtualDubMod 1.5.10.3 | www.virtualdub-fr.org || (build 2550/release)
Библиотека кодирования : VirtualDubMod build 2550/release
Видео
Идентификатор : 0
Формат : MPEG-4 Visual
Профиль формата : Advanced [email protected]
Настройки формата : BVOP2 / Custom Matrix
Параметр BVOP формата : 2
Параметр QPel формата : Нет
Параметр GMC формата : Без точки перехода
Параметр матрицы формата : Выборочная
Идентификатор кодека : XVID
Идентификатор кодека/Подсказка : XviD
Продолжительность : 47 м. 14 с.
Битрейт : 1395 Кбит/сек
Ширина : 720 пикселей
Высота : 400 пикселей
Соотношение сторон : 16:9
Частота кадров : 23,976 (24000/1001) кадра/сек
Цветовое пространство : YUV
Субдискретизация насыщенности : 4:2:0
Битовая глубина : 8 бит
Тип развёртки : Прогрессивная
Метод сжатия : С потерями
Бит/(Пиксели*Кадры) : 0.202
Размер потока : 471 Мбайт (84%)
Библиотека кодирования : XviD 73
Аудио #1
Идентификатор : 1
Формат : MPEG Audio
Версия формата : Version 1
Профиль формата : Layer 3
Настройки формата : Joint stereo / MS Stereo
Режим : Joint stereo
Расширение режима : MS Stereo
Идентификатор кодека : 55
Идентификатор кодека/Подсказка : MP3
Продолжительность : 47 м. 14 с.
Вид битрейта : Постоянный
Битрейт : 128 Кбит/сек
Каналы : 2 канала
Частота : 48,0 КГц
Метод сжатия : С потерями
Размер потока : 43,2 Мбайт (8%)
Выравнивание : Соединение по промежуткам
Продолжительность промежутка : 42 мс. (1,00 видеокадр)
Время предзагрузки промежутка : 504 мс.
Аудио #2
Идентификатор : 2
Формат : MPEG Audio
Версия формата : Version 1
Профиль формата : Layer 3
Настройки формата : Joint stereo / MS Stereo
Режим : Joint stereo
Расширение режима : MS Stereo
Идентификатор кодека : 55
Идентификатор кодека/Подсказка : MP3
Продолжительность : 47 м. 14 с.
Вид битрейта : Постоянный
Битрейт : 128 Кбит/сек
Каналы : 2 канала
Частота : 48,0 КГц
Метод сжатия : С потерями
Размер потока : 43,3 Мбайт (8%)
Выравнивание : Соединение по промежуткам
Продолжительность промежутка : 42 мс. (1,00 видеокадр)
Время предзагрузки промежутка : 504 мс.
-
-Скриншоты:
-
Раздача ведётся путём добавления новых серий; при каждом добавлении создаётся новый торрент.
Чтобы начать докачку новой серии, пользователям необходимо сделать следующее:
1. остановить скачивание,
2. удалить старый торрент у себя из клиента (старые серии удалять не надо),
3. скачать новый торрент и запустить его у себя в клиенте вместо старого, при этом указать клиенту путь в старую папку, куда и должно происходить скачивание новых серий.
Ваш клиент при этом должен произвести хеширование (проверку) старой папки (если не производит сам - помогите ему сделать это), и будет докачивать только те серии которых у вас ещё нет. Старые серии при этом не удаляются, а продолжают раздаваться!
Eсли вы уже удалили старые серии, то предотвратить повторную закачку старых серий можно, отжав галочку в соответствующих местах при запуске нового торрента. По возможности, желательно не удалять старые серии как можно дольше, чтобы релизёр не столько продолжал раздавать старые серии, а смог сконцентрироваться на новых.
Совет для тех, кто не хочет ждать перехеширования:
Создайте ещё одну папку рядом с папкой сериала (рядом, а не в ней!!!). Каждую новую серию после удачной загрузки копируйте в новую папку так чтобы ваша основная папка всегда была пуста. Когда ваш новый торрент предложит вам закачать все файлы, выберете только последнюю. Для сидирования же укажите адрес новой папки.
Как закачать отдельный файл из торрента или докачать ранее пропущенные файлы торрента!
-
1. Открыть торрент
2. Снять галки с тех файлов торрента, которые мы не хотим закачивать. Оставляем только на нужных нам файлах (файле).
3. Нажать О.К.
В клиенте utorrent
Инструкция
1) Открыть торрент

2) Снять галки с тех файлов торрента, которые мы не хотим закачивать:
* либо вручную, снимая с каждого файла галку( скрин №1)
* либо, нажав кнопку "Снять метки (Select None)", сняв сразу со всех файлов(скрин №2)
№1

№2

Оставляем только на нужных нам файлах (файле).

3)Нажать О.К
-Приятного просмотра!!!-
Download / Скачать

Хотите скачать бесплатно? Зарегистрируйтесь на сайте (ссылка на регистрацию). Pirat.ca - самый быстрый торрент трекер в рунете!

Как скачивать  ·   Что такое торрент  ·   Рейтинг и ограничения

Показать сообщения:    
Ответить на тему

Текущее время: Сегодня 08:11

Часовой пояс: GMT + 4



Вы не можете начинать темы
Вы не можете отвечать на сообщения
Вы не можете редактировать свои сообщения
Вы не можете удалять свои сообщения
Вы не можете голосовать в опросах
Вы не можете прикреплять файлы к сообщениям
Вы не можете скачивать файлы

▼ Вниз