Уважаемый Гость!
Вы можете поддержать проект и зарегистрироваться у наших партнеров - онлайн-стратегия MyLands. При регистрации в игре Вы получите код, который сможете активировать после регистрации на pirat.ca и получить 1000 дублонов.

Ваш код:
a2be712514e46eae310418ece8905345dbacafb8
 
     

Скрюченный домишко / Crooked House (Жиль Паке-Бреннер / Gilles Paquet-Brenner) [2017 г., драма, криминал, детектив, WEB-DLRip] MVO [iTunes]

Ответить на тему
 
Автор
Сообщение

Пост 23-Ноя-2017 18:36

[Q] 

ara1205

-Скрюченный домишко / Crooked House-- Производство: Великобритания
Год выпуска: 2017 г.
Жанр: драма, криминал, детектив
Продолжительность: 01:54:46
Мировая премьера: 31 октября 2017
Российская премьера: 2 ноября 2017
Перевод: Профессиональный (многоголосый, закадровый) [iTunes]-Режиссёр: Жиль Паке-Бреннер / Gilles Paquet-Brenner-В ролях: Кристина Хендрикс, Джиллиан Андерсон, Гленн Клоуз, Макс Айронс, Теренс Стэмп, Аманда Аббингтон, Стефани Мартини, Джулиан Сэндс, Роджер Эштон-Гриффитс, Кристиан МакКэй-Описание: София, внучка олигарха Аристида Леонидиса, приглашает частного детектива Чарльза Хейуорда расследовать убийство ее дедушки. Она уверена: кто-то из домочадцев отравил его. Взявшись за расследование, Чарльз выясняет, что мотив мог быть у всех. Даже у Софии…- -Качество видео: WEB-DLRip
Контейнер: AVI
Видео кодек: XviD
Аудио кодек: AC3
Видео: 720х320, 24 fps, 1429 Kbps, 0.258 bits/pixel
Аудио: 48 kHz, AC3 Dolby Digital, 6 ch, 384 Kbps
Cубтитры: отсутствуют-
Общее
Полное имя : C:\Users\Admin\Pictures\Скрюченный домишко\Skruchennyj.Domishko.2017.WEB-DLRip.[pirat.ca].avi
Формат : AVI
Формат/Информация : Audio Video Interleave
Размер файла : 1,46 Гбайт
Продолжительность : 1 ч. 54 м.
Общий поток : 1822 Кбит/сек
Программа кодирования : VirtualDubMod 1.5.10.2 (build 2540/release)
Библиотека кодирования : VirtualDubMod build 2540/release
Видео
Идентификатор : 0
Формат : MPEG-4 Visual
Профиль формата : Advanced [email protected]
Параметр BVOP формата : 1
Параметр QPel формата : Нет
Параметр GMC формата : Без точки перехода
Параметр матрицы формата : Выборочная
Идентификатор кодека : XVID
Идентификатор кодека/Подсказка : XviD
Продолжительность : 1 ч. 54 м.
Битрейт : 1429 Кбит/сек
Ширина : 720 пикселей
Высота : 320 пикселей
Соотношение сторон : 2,25:1
Частота кадров : 24,000 кадра/сек
Цветовое пространство : YUV
Субдискретизация насыщенности : 4:2:0
Битовая глубина : 8 бит
Тип развёртки : Прогрессивная
Метод сжатия : С потерями
Бит/(Пиксели*Кадры) : 0.258
Размер потока : 1,15 Гбайт (78%)
Библиотека кодирования : XviD 73
Аудио
Идентификатор : 1
Формат : AC-3
Формат/Информация : Audio Coding 3
Расширение режима : CM (complete main)
Параметр Endianness формата : Big
Идентификатор кодека : 2000
Продолжительность : 1 ч. 54 м.
Вид битрейта : Постоянный
Битрейт : 384 Кбит/сек
Каналы : 6 каналов
Расположение каналов : Front: L C R, Side: L R, LFE
Частота : 48,0 КГц
Битовая глубина : 16 бит
Метод сжатия : С потерями
Размер потока : 315 Мбайт (21%)
Выравнивание : Разделение по промежуткам
Продолжительность промежутка : 42 мс. (1,00 видеокадр)
Время предзагрузки промежутка : 500 мс.
-
-
Download / Скачать

Хотите скачать бесплатно? Зарегистрируйтесь на сайте (ссылка на регистрацию). Pirat.ca - самый быстрый торрент трекер в рунете!

Как скачивать  ·   Что такое торрент  ·   Рейтинг и ограничения

Пост 13-Янв-2018 10:32 (спустя 1 месяц 19 дней)

Топик был перенесен из форума Новинки (HD|DVD|BD| TV|SAT|PDTV| - Rips) в форум Фильмы 2010 - 2017 г.г.
aleksey99
 

exelero07

Флибустьер

Пост 07-Мар-2018 01:21 (спустя 3 месяца 13 дней)

[Q] 

Отличная экранизация.
[Профиль]  [ЛС] 
Показать сообщения:    
Ответить на тему

Текущее время: Сегодня 16:15

Часовой пояс: GMT + 4



Вы не можете начинать темы
Вы не можете отвечать на сообщения
Вы не можете редактировать свои сообщения
Вы не можете удалять свои сообщения
Вы не можете голосовать в опросах
Вы не можете прикреплять файлы к сообщениям
Вы не можете скачивать файлы

▼ Вниз