Уважаемый Гость!
Вы можете поддержать проект и зарегистрироваться у наших партнеров - онлайн-стратегия MyLands. При регистрации в игре Вы получите код, который сможете активировать после регистрации на pirat.ca и получить 1000 дублонов.

Ваш код:
c17a4f68b1901bcf2425e3baa791dc3d8473d954
 
     

Сверхъестественное / Supernatural / Сезон: 13 / Серии: 1-13 из 23 (Роберт Сингер / Robert Singer) [2017 г., Ужасы, фэнтези, триллер, драма, детектив, WEB-DL, 720p] MVO NewStudio.TV & NovaFilm.TV + Original (Eng)

Ответить на тему
 
Автор
Сообщение

Пост 28-Ноя-2017 14:21

[Q] 

SwordFish

Шкипер

- Русское название: Сверхъестественное
Оригинальное название: Supernatural
Страна: США
Год выпуска: 2017
Жанр: Ужасы, Фэнтези, Триллер, Драма, Детектив
Продолжительность: ~ 00:42:00 мин серия
Премьера (мир): 12 октября 2017
Озвучка и перевод: Многоголосый закадровый, профессиональный (NewStudio.TV & NovaFilm.TV есть реклама)
Оригинальный аудиопоток: английский-Режиссер: Роберт Сингер / Robert Singer
В ролях: Джаред Падалеки, Дженсен Эклс, Джим Бивер, Миша Коллинз, Марк Шеппард, Марк Пеллегрино, Женевьев Падалеки
Описание сериала:
Сериал повествует о двух братьях — охотниках за нечистью, которые путешествуют по Соединённым Штатам Америки на чёрной Chevrolet Impala 1967 года, расследуя паранормальные явления, многие из которых основаны на городских легендах и фольклоре, а также сражаются с порождениями зла: демонами, призраками и другой нечистью.-Качество видео: WEBDL 720p
Формат: MKV
Видеокодек: AVC
Видео: V_MPEG4/ISO/AVC | 4 049 Кбит/сек | 1280 x 720 | 23.976 fps | 0.184 Бит/Пиксели
Аудиокодек: AC-3
Аудио Rus: AC-3 | 384 Кбит/сек| 6 каналов | 48,0 КГц | Newstudio & Novafilm |
Аудио Eng: AC-3 | 384 Кбит/сек| 6 каналов | 48,0 КГц |
Cубтитры: отсутствуют- -
General
Unique ID : 232749831505002818389160445728511539063 (0xAF19FCAC565235E4B0D745F19DDCB777)
Complete name : /home/serg/Видео/Supernatural_s13_webdl_720p/supernatural.s13e01.webdl.720p.rus.newstudio.tv.novafilm.tv.mkv
Format : Matroska
Format version : Version 4 / Version 2
File size : 1.41 GiB
Duration : 41 min 45 s
Overall bit rate : 4 819 kb/s
Encoded date : UTC 2017-10-16 10:26:12
Writing application : mkvmerge v9.8.0 ('Kuglblids') 64bit
Writing library : libebml v1.3.4 + libmatroska v1.4.5
Video
ID : 1
Format : AVC
Format/Info : Advanced Video Codec
Format profile : [email protected]
Format settings : 2 Ref Frames
Format settings, CABAC : No
Format settings, ReFrames : 2 frames
Format settings, GOP : N=1
Codec ID : V_MPEG4/ISO/AVC
Duration : 41 min 45 s
Bit rate : 4 049 kb/s
Width : 1 280 pixels
Height : 718 pixels
Display aspect ratio : 16:9
Frame rate mode : Constant
Frame rate : 23.976 (23976/1000) FPS
Color space : YUV
Chroma subsampling : 4:2:0
Bit depth : 8 bits
Scan type : Progressive
Bits/(Pixel*Frame) : 0.184
Stream size : 1.18 GiB (84%)
Language : English
Default : Yes
Forced : No
Color range : Limited
Color primaries : BT.709
Transfer characteristics : BT.709
Matrix coefficients : BT.709
Audio #1
ID : 2
Format : AC-3
Format/Info : Audio Coding 3
Codec ID : A_AC3
Duration : 41 min 45 s
Bit rate mode : Constant
Bit rate : 384 kb/s
Channel(s) : 6 channels
Channel positions : Front: L C R, Side: L R, LFE
Sampling rate : 48.0 kHz
Frame rate : 31.250 FPS (1536 SPF)
Bit depth : 16 bits
Compression mode : Lossy
Stream size : 115 MiB (8%)
Language : Russian
Service kind : Complete Main
Default : Yes
Forced : No
Audio #2
ID : 3
Format : AC-3
Format/Info : Audio Coding 3
Codec ID : A_AC3
Duration : 41 min 45 s
Bit rate mode : Constant
Bit rate : 384 kb/s
Channel(s) : 6 channels
Channel positions : Front: L C R, Side: L R, LFE
Sampling rate : 48.0 kHz
Frame rate : 31.250 FPS (1536 SPF)
Bit depth : 16 bits
Compression mode : Lossy
Stream size : 115 MiB (8%)
Language : English
Service kind : Complete Main
Default : No
Forced : No
Внимание! Раздача ведётся путём добавления новых серий; при каждом добавлении создаётся новый торрент.
Чтобы начать докачку новой серии, пользователям необходимо сделать следующее:
1. Остановить скачивание;
2. Удалить старый торрент у себя из клиента (старые серии удалять не надо);
3. Скачать новый торрент и запустить его у себя в клиенте вместо старого, при этом указать клиенту путь в старую папку куда и должно происходить скачивание новых серий. Ваш клиент при этом должен произвести хеширование (проверку) старой папки и будет докачивать только те серии, которых у вас ещё нет. Старые серии при этом не удаляются, а продолжают раздаваться! Eсли вы уже удалили старые серии, то предотвратить повторную закачку старых серий можно, отжав галочку в соответствующих местах при запуске нового торрента.
12.02.2018 Добавлена 13я серия. Торрент перезалит.
Download / Скачать

Хотите скачать бесплатно? Зарегистрируйтесь на сайте (ссылка на регистрацию). Pirat.ca - самый быстрый торрент трекер в рунете!

Как скачивать  ·   Что такое торрент  ·   Рейтинг и ограничения



Последний раз редактировалось: SwordFish (2018-02-13 11:38), всего редактировалось 15 раз(а)

Кристина119

Гроза морей

Пост 28-Ноя-2017 22:11 (спустя 7 часов)

[Q] 

Ура, аж целых 7 серий Лови бочку
[Профиль]  [ЛС] 

SwordFish ®

Шкипер

547

Пост 29-Ноя-2017 23:14 (спустя 1 день 1 час)

[Q] 

Скачавших прошу не уходить с раздачи
[Профиль]  [ЛС] 

Pirat177

Корсар

Пост 01-Дек-2017 15:50 (спустя 1 день 16 часов)

[Q] 

Спасибо!!! Супер! С раздачи не ухожу две недели
[Профиль]  [ЛС] 

Ishtori

Флибустьер

Пост 16-Дек-2017 18:45 (спустя 15 дней)

[Q] 

спасибо за раздачу! Всем качать!!!
[Профиль]  [ЛС] 

head280

Шкипер

Пост 23-Янв-2018 12:42 (спустя 1 месяц 6 дней)

[Q] 

Спасибо, что не забываете радовать.
[Профиль]  [ЛС] 

zvezda_2s

Флибустьер

Пост 06-Фев-2018 20:49 (спустя 14 дней)

[Q] 

Я офигеваю! И что, кто-то смотрит ЭТО?
[Профиль]  [ЛС] 

SwordFish ®

Шкипер

547

Пост 06-Фев-2018 23:33 (спустя 2 часа 43 минуты)

[Q] 

818511Я офигеваю! И что, кто-то смотрит ЭТО?
Ну если качают, то выходит, что смотрят)
А так, как по мне, то сильно затянули сериал.
[Профиль]  [ЛС] 
Показать сообщения:    
Ответить на тему

Текущее время: Сегодня 19:59

Часовой пояс: GMT + 4



Вы не можете начинать темы
Вы не можете отвечать на сообщения
Вы не можете редактировать свои сообщения
Вы не можете удалять свои сообщения
Вы не можете голосовать в опросах
Вы не можете прикреплять файлы к сообщениям
Вы не можете скачивать файлы

▼ Вниз