Уважаемый Гость!
Вы можете поддержать проект и зарегистрироваться у наших партнеров - онлайн-стратегия MyLands. При регистрации в игре Вы получите код, который сможете активировать после регистрации на pirat.ca и получить 1000 дублонов.

Ваш код:
26839cd8c6b4848714d1d2f8fd66233fc251c7ab
 
     

Детективное агентство Дирка Джентли / Dirk Gently's Holistic Detective Agency / Сезон: 2 / Серия: 1-8 из 10 (Макс Лэндис / Max Landis) [2017, Великобритания, США, комедия, фантастика, WEB-DL 720p] MVO (NewStudio) Original + Eng Subs

Ответить на тему
 
Автор
Сообщение

Пост 05-Дек-2017 15:41

[Q] 

Андря

-Детективное агентство Дирка Джентли / Dirk Gently's Holistic Detective Agency
(2 сезон)
-- Производство: США, Великобритания
Жанр: фантастика, комедия
Год выпуска: 2017 г.
Продолжительность: 00:45:00
Перевод: Профессиональный (многоголосый закадровый) NewStudio
Оригинальный аудиопоток: английский
Режиссер: Макс Лэндис / Max Landis-В ролях: Элайджа Вуд, Сэмюэл Барнетт, Ханна Маркс, Джейд Эшете, Мфо Коахо, Дастин Миллиган, Фиона Дуриф, Осрик Чау, Зак Сантьяго, Майкл Эклунд-Описание: Главный герой этого сериала никогда не отступит перед сложными расследованиями. Детектив Джентли и его верный, но жутко недовольный всем на свете помощник Тодд готовы отправиться на раскрытие очередного преступления. Каждый новый сезон эти персонажи будут расследовать сложное запутанное дело. В этот раз они сталкиваются с тайной, которую никто не мог раскрыть уже давно. На пути главных героев ожидают реальные опасности. Каждая новая серия - это очередной шаг к разгадке, а также очередное испытание, которое Джентли и Тодду предстоит пройти, несмотря на трудности и некоторые проблемы с логическим мышлением.
- -
Качество видео
: WEB-DL
Контейнер: MKV
Видео кодек: H.264/AVC
Аудио кодек: AC3
Видео: AVC, 3927 Кбит/сек, 1280х718, 16:9, 23,976 (24000/1001) кадра/сек, 8 бит, 0.178 Бит/Пиксел
Аудио 1: AC-3, 384 Кбит/сек, 6 каналов, Front: L C R, Side: L R, LFE, 48,0 КГц, 16 бит, Russian (NewStudio)
Аудио 2: AC-3, 384 Кбит/сек, 6 каналов, Front: L C R, Side: L R, LFE, 48,0 КГц, 16 бит, English
Cубтитры: английские

01. - 14.10.2017 - Кролик из космоса / Space Rabbit
02. - 21.10.2017 - Фанаты мокрых кругов / Fans of Wet Circles
03. - 28.10.2017 - Два сломанных пальца / Two Broken Fingers
04. - 04.11.2017 - Дом внутри дома / The House Within a House
05. - 11.11.2017 - Цветные узоры / Shapes and Colors
06. - 18.11.2017 - Девушка с способностями / Girl Power
07. - 25.11.2017 - Эпизод # 2.07 / Episode #2.07
08. - 03.12.2017 - Эпизод # 2.08 / Episode #2.08
09. - 10.12.2017 - Эпизод # 2.09 / Episode #2.09
10. - 17.12.2017 - Эпизод # 2.10 / Episode #2.10
Код:
Общее
Уникальный идентификатор : 210546048727784002089794659878503056632 (0x9E65B1A97113FBE9A2831A07D67204F8)
Полное имя : G:\Dirk Gently's Holistic Detective Agency. Сезон 2. NewStudio. 720p\Dirk.Gently's.Holistic.Detective.Agency.s02e01.WEB-DL.720p.NewStudio.mkv
Формат : Matroska
Версия формата : Version 4 / Version 2
Размер файла : 1,39 Гбайт
Продолжительность : 41 м. 32 с.
Общий поток : 4790 Кбит/сек
Название фильма : Dirk Gently's Holistic Detective Agency s02e01 @ NNM-Club
Дата кодирования : UTC 2017-10-17 05:23:56
Программа кодирования : mkvmerge v6.9.1 ('Blue Panther') 64bit built on Apr 18 2014 18:23:38
Библиотека кодирования : libebml v1.3.0 + libmatroska v1.4.1
Видео
Идентификатор : 1
Формат : AVC
Формат/Информация : Advanced Video Codec
Профиль формата : [email protected]
Настройки формата : 2 Ref Frames
Параметр CABAC формата : Нет
Параметр RefFrames формата : 2 кадра
Идентификатор кодека : V_MPEG4/ISO/AVC
Продолжительность : 41 м. 32 с.
Битрейт : 3927 Кбит/сек
Ширина : 1280 пикселей
Высота : 718 пикселей
Соотношение сторон : 16:9
Режим частоты кадров : Постоянный
Частота кадров : 23,976 (24000/1001) кадра/сек
Цветовое пространство : YUV
Субдискретизация насыщенности : 4:2:0
Битовая глубина : 8 бит
Тип развёртки : Прогрессивная
Бит/(Пиксели*Кадры) : 0.178
Размер потока : 1,14 Гбайт (82%)
Язык : English
Default : Да
Forced : Нет
Цветовой диапазон : Limited
Основные цвета : BT.709
Характеристики трансфера : BT.709
Коэффициенты матрицы : BT.709
Аудио #1
Идентификатор : 2
Формат : AC-3
Формат/Информация : Audio Coding 3
Параметр Endianness формата : Big
Идентификатор кодека : A_AC3
Продолжительность : 41 м. 32 с.
Вид битрейта : Постоянный
Битрейт : 384 Кбит/сек
Каналы : 6 каналов
Расположение каналов : Front: L C R, Side: L R, LFE
Частота : 48,0 КГц
Частота кадров : 31,250 кадров/сек (1536 SPF)
Битовая глубина : 16 бит
Метод сжатия : С потерями
Размер потока : 114 Мбайт (8%)
Язык : Russian
ServiceKind/String : Complete Main
Default : Да
Forced : Нет
Аудио #2
Идентификатор : 3
Формат : AC-3
Формат/Информация : Audio Coding 3
Параметр Endianness формата : Big
Идентификатор кодека : A_AC3
Продолжительность : 41 м. 32 с.
Вид битрейта : Постоянный
Битрейт : 384 Кбит/сек
Каналы : 6 каналов
Расположение каналов : Front: L C R, Side: L R, LFE
Частота : 48,0 КГц
Частота кадров : 31,250 кадров/сек (1536 SPF)
Битовая глубина : 16 бит
Метод сжатия : С потерями
Размер потока : 114 Мбайт (8%)
Язык : English
ServiceKind/String : Complete Main
Default : Нет
Forced : Нет
Текст
Идентификатор : 4
Формат : UTF-8
Идентификатор кодека : S_TEXT/UTF8
Идентификатор кодека/Информация : UTF-8 Plain Text
Язык : English
Default : Нет
Forced : Нет
Download / Скачать

Хотите скачать бесплатно? Зарегистрируйтесь на сайте (ссылка на регистрацию). Pirat.ca - самый быстрый торрент трекер в рунете!

Как скачивать  ·   Что такое торрент  ·   Рейтинг и ограничения



Последний раз редактировалось: Андря (Вчера 00:16), всего редактировалось 2 раз(а)

Амангельды

37556

Пост 06-Дек-2017 01:59 (спустя 10 часов)

[Q] 

Хорошее кино.
Впечатления после 1 сезона прекрасные...
Жду окончания этого, дабы не прерываясь посмотреть.
Мне понравилось Раздающему респект!
Пы Сы... Вот только почему-то Ханна Джей Маркс в ролях отсутствует...
Хотя она там самая красивая.
И чокнутая.

_________________

Товарищ, верь, пройдет она,
Так называемая гласность.
И вот тогда госбезопасность
Припомнит ваши имена
Раздачи от Амангельды - ТЫНЦ
[Профиль]  [ЛС] 

Андря ®

8535

Пост 06-Дек-2017 11:13 (спустя 9 часов)

[Q] 

Амангельды, исправлено.

_________________
Като Тешекика
[Профиль]  [ЛС] 

Амангельды

37556

Пост 06-Дек-2017 19:32 (спустя 8 часов)

[Q] 

Андря, bj
aa

_________________

Товарищ, верь, пройдет она,
Так называемая гласность.
И вот тогда госбезопасность
Припомнит ваши имена
Раздачи от Амангельды - ТЫНЦ
[Профиль]  [ЛС] 

raul kurochka

Флибустьер

Пост 09-Дек-2017 05:19 (спустя 2 дня 9 часов)

[Q] 

вот еще бы раздавал кто cw

_________________
...ЧО ТАКОЙ СЕРЬЕЗНЫЙ???
[Профиль]  [ЛС] 

Андря ®

8535

Пост Вчера 11:06 (спустя 1 день 5 часов)

[Q] 

Специально для многимиуважаемого Амангельды добавил скриншотов.

_________________
Като Тешекика
[Профиль]  [ЛС] 
Показать сообщения:    
Ответить на тему

Текущее время: Сегодня 08:11

Часовой пояс: GMT + 4



Вы не можете начинать темы
Вы не можете отвечать на сообщения
Вы не можете редактировать свои сообщения
Вы не можете удалять свои сообщения
Вы не можете голосовать в опросах
Вы не можете прикреплять файлы к сообщениям
Вы не можете скачивать файлы

▼ Вниз