Безумные соседи / À bras ouverts (Филипп де Шоврон / Philippe de Chauveron) [2017 г., комедия, BDRip] Dub [iTunes]

Ответить на тему
 
Автор
Сообщение

Пост 05-Дек-2017 23:14

[Q] 

ara1205

-Безумные соседи / À bras ouverts-- Производство: Франция, Бельгия
Год выпуска: 2017 г.
Жанр: комедия
Продолжительность: 01:32:13
Перевод: Профессиональный (полное дублирование) [iTunes]-Режиссёр: Филипп де Шоврон / Philippe de Chauveron-В ролях: Кристиан Клавье, Эри Абиттан, Эльза Зильберштейн, Сириль Леконт, Нану Гарсия, Оскар Берт, Мирела Николау, София Мануша, Иоана Висалон, Никита Драгомир-Описание: В запале предвыборных дебатов рафинированный буржуа Жан-Этьен Фужероль неосторожно бросает с экрана телевизора, что его любимая Франция открыта для любых иммигрантов, они повсюду найдут себе кров и еду, даже в его доме. Не проходит и суток, как у его ворот появляется цыганский табор во главе с наглецом Бабиком. Не пустить — потерять голоса избирателей. Размеренной семейной жизни приходит конец: нежданные гости плавают в крытом бассейне, устраивают концерты во дворе, обживают хозяйский туалет, пьют коллекционные вина и даже пытаются приударить за женой Жан-Этьена.- -Качество видео: BDRip
Контейнер: AVI
Видео кодек: XviD
Аудио кодек: AC3
Видео: 688х368, 24 fps, 1807 Kbps, 0.297 bits/pixel
Аудио: 48 kHz, AC3 Dolby Digital, 6 ch, 384 Kbps
Cубтитры: отсутствуют-
Общее
Полное имя : C:\Users\Admin\Pictures\Безумные соседи\Bezymnye.Sosedi.2017.BDRip.[pirat.ca].avi
Формат : AVI
Формат/Информация : Audio Video Interleave
Размер файла : 1,42 Гбайт
Продолжительность : 1 ч. 32 м.
Общий поток : 2201 Кбит/сек
Программа кодирования : VirtualDubMod 1.5.10.2 (build 2540/release)
Библиотека кодирования : VirtualDubMod build 2540/release
Видео
Идентификатор : 0
Формат : MPEG-4 Visual
Профиль формата : Advanced Simple@L5
Параметр BVOP формата : 1
Параметр QPel формата : Нет
Параметр GMC формата : Без точки перехода
Параметр матрицы формата : Выборочная
Идентификатор кодека : XVID
Идентификатор кодека/Подсказка : XviD
Продолжительность : 1 ч. 32 м.
Битрейт : 1807 Кбит/сек
Ширина : 688 пикселей
Высота : 368 пикселей
Соотношение сторон : 1,85:1
Частота кадров : 24,000 кадра/сек
Цветовое пространство : YUV
Субдискретизация насыщенности : 4:2:0
Битовая глубина : 8 бит
Тип развёртки : Прогрессивная
Метод сжатия : С потерями
Бит/(Пиксели*Кадры) : 0.297
Размер потока : 1,16 Гбайт (82%)
Библиотека кодирования : XviD 73
Аудио
Идентификатор : 1
Формат : AC-3
Формат/Информация : Audio Coding 3
Расширение режима : CM (complete main)
Параметр Endianness формата : Big
Идентификатор кодека : 2000
Продолжительность : 1 ч. 32 м.
Вид битрейта : Постоянный
Битрейт : 384 Кбит/сек
Каналы : 6 каналов
Расположение каналов : Front: L C R, Side: L R, LFE
Частота : 48,0 КГц
Битовая глубина : 16 бит
Метод сжатия : С потерями
Размер потока : 253 Мбайт (17%)
Выравнивание : Разделение по промежуткам
Продолжительность промежутка : 42 мс. (1,00 видеокадр)
Время предзагрузки промежутка : 500 мс.
-
-
Download / Скачать

Хотите скачать бесплатно? Зарегистрируйтесь на сайте (ссылка на регистрацию). Pirat.ca - самый быстрый торрент трекер в рунете!

Как скачивать  ·   Что такое торрент  ·   Рейтинг и ограничения



Последний раз редактировалось: ara1205 (2017-12-06 23:28), всего редактировалось 1 раз

ara1205 ®

88789

Пост 06-Дек-2017 19:37 (спустя 20 часов)

[Q] 

Хорошая комедия
[Профиль]  [ЛС] 

$ieJOKER

Гроза морей

2355

Пост 06-Дек-2017 21:03 (спустя 1 час 26 минут)

[Q] 

813965Жанр: Франция, Бельгия

_________________
Раздачи веду до первых сидов.
[Профиль]  [ЛС] 

ara1205 ®

88789

Пост 06-Дек-2017 23:29 (спустя 2 часа 25 минут)

[Q] 

814010
813965Жанр: Франция, Бельгия
опачки((( Спасибо, сейчас исправлю.
[Профиль]  [ЛС] 

fishman

Флибустьер

Пост 09-Дек-2017 23:03 (спустя 2 дня 23 часа)

[Q] 

Спасибо!!! rum

_________________
|___|___|___|___|___|___|___|__|__
__|__|__|_Биться головой_|___|___|
|___|___|___|__сюда!!___|___|__|__
__|___|___|___|___|___|___|__|__
[Профиль]  [ЛС] 

usya5

Корсар

Пост 10-Дек-2017 22:27 (спустя 23 часа)

[Q] 

Действительно хорошая комедия?
чего-то отзывов нет... Лови бочку
[Профиль]  [ЛС] 

Пост 13-Янв-2018 10:32 (спустя 1 месяц 2 дня)

Топик был перенесен из форума Новинки (HD|DVD|BD| TV|SAT|PDTV| - Rips) в форум Фильмы 2010 - 2017 г.г.
aleksey99
 
Показать сообщения:    
Ответить на тему

Текущее время: Сегодня 09:56

Часовой пояс: GMT + 4



Вы не можете начинать темы
Вы не можете отвечать на сообщения
Вы не можете редактировать свои сообщения
Вы не можете удалять свои сообщения
Вы не можете голосовать в опросах
Вы не можете прикреплять файлы к сообщениям
Вы не можете скачивать файлы

Майнать ▼