Уважаемый Гость!
Вы можете поддержать проект и зарегистрироваться у наших партнеров - онлайн-стратегия MyLands. При регистрации в игре Вы получите код, который сможете активировать после регистрации на pirat.ca и получить 1000 дублонов.

Ваш код:
26839cd8c6b4848714d1d2f8fd66233fc251c7ab
 
     

мама! / mother! (Даррен Аронофски / Darren Aronofsky) [2017 г., ужасы, драма, детектив, WEB-DLRip] Dub [iTunes]

Ответить на тему
 
Автор
Сообщение

Пост 06-Дек-2017 13:58

[Q] 

ara1205

-мама! / mother!-- Производство: США
Год выпуска: 2017 г.
Жанр: ужасы, драма, детектив
Продолжительность: 02:01:44
Мировая премьера: 5 сентября 2017
Российская премьера: 14 сентября 2017
Перевод: Профессиональный (полное дублирование) [iTunes]-Режиссёр: Даррен Аронофски / Darren Aronofsky-В ролях: Дженнифер Лоуренс, Хавьер Бардем, Эд Харрис, Мишель Пфайффер, Брин Глисон, Донал Глисон, Йован Адепо, Патриция Саммерсетт, Эрик Дэвис-Описание: Отношения молодой пары оказываются под угрозой, когда, нарушая безмятежное существование супругов, в их дом заявляются незваные гости.- -Качество видео: WEB-DLRip
Контейнер: AVI
Видео кодек: XviD
Аудио кодек: AC3
Видео: 720х304, 23,976 fps, 1325 Kbps, 0.252 bits/pixel
Аудио: 48 kHz, AC3 Dolby Digital, 6 ch, 384 Kbps
Cубтитры: отсутствуют-
Общее
Полное имя : C:\Users\Admin\Pictures\мама\mama.2017.WEB-DLRip.[pirat.ca].avi
Формат : AVI
Формат/Информация : Audio Video Interleave
Размер файла : 1,46 Гбайт
Продолжительность : 2 ч. 1 м.
Общий поток : 1716 Кбит/сек
Программа кодирования : VirtualDubMod 1.5.10.2 (build 2540/release)
Библиотека кодирования : VirtualDubMod build 2540/release
Видео
Идентификатор : 0
Формат : MPEG-4 Visual
Профиль формата : Advanced [email protected]
Параметр BVOP формата : 1
Параметр QPel формата : Нет
Параметр GMC формата : Без точки перехода
Параметр матрицы формата : Выборочная
Идентификатор кодека : XVID
Идентификатор кодека/Подсказка : XviD
Продолжительность : 2 ч. 1 м.
Битрейт : 1325 Кбит/сек
Ширина : 720 пикселей
Высота : 304 пикселя
Соотношение сторон : 2,35:1
Частота кадров : 23,976 кадра/сек
Цветовое пространство : YUV
Субдискретизация насыщенности : 4:2:0
Битовая глубина : 8 бит
Тип развёртки : Прогрессивная
Метод сжатия : С потерями
Бит/(Пиксели*Кадры) : 0.252
Размер потока : 1,13 Гбайт (77%)
Библиотека кодирования : XviD 73
Аудио
Идентификатор : 1
Формат : AC-3
Формат/Информация : Audio Coding 3
Расширение режима : CM (complete main)
Параметр Endianness формата : Big
Идентификатор кодека : 2000
Продолжительность : 2 ч. 1 м.
Вид битрейта : Постоянный
Битрейт : 384 Кбит/сек
Каналы : 6 каналов
Расположение каналов : Front: L C R, Side: L R, LFE
Частота : 48,0 КГц
Битовая глубина : 16 бит
Метод сжатия : С потерями
Размер потока : 333 Мбайт (22%)
Выравнивание : Разделение по промежуткам
Продолжительность промежутка : 42 мс. (1,00 видеокадр)
Время предзагрузки промежутка : 500 мс.
-
-
Download / Скачать

Хотите скачать бесплатно? Зарегистрируйтесь на сайте (ссылка на регистрацию). Pirat.ca - самый быстрый торрент трекер в рунете!

Как скачивать  ·   Что такое торрент  ·   Рейтинг и ограничения

clark

Корсар

Пост 07-Дек-2017 23:46 (спустя 1 день 9 часов)

[Q] 

спасибо заценим

_________________
Последним смеётся тот, кто стреляет первым.
[Профиль]  [ЛС] 

shelby290

Флибустьер

Пост 08-Дек-2017 21:21 (спустя 21 час)

[Q] 

Неплохой фильм!
[Профиль]  [ЛС] 

Wengin

Лоцман

Пост 09-Дек-2017 01:01 (спустя 3 часа)

[Q] 

Фильм редкое дерьмо
[Профиль]  [ЛС] 

Diogen2

Юнга

Пост 09-Дек-2017 21:54 (спустя 20 часов)

[Q] 

Фильм в своём роде очень оригинальный, от и до это, конечно, аллегория. Фильм нельзя воспринимать буквально, практически сразу начинаешь понимать, что что-то здесь не так, что автор задумал показать сложный внутренний процесс, процесс творчества. Чем-то смахивает на фильмы Дэвида Линча, но намного проще.
По сути в фильме описан творческий процесс и всё, что с ним связано. Интересно будет посмотреть людям, имеющим к этому процессу какое-то отношение, они сразу поймут, о чём речь. И всё, действительно, так. Творческий человек - это одиночка, с богатым и глубоким внутренним миром, миром, в котором есть место для всех и для всего, но в тоже время, в нём он один. Даже самые близкие люди отданы в жертву вдохновению и славе и эти же самые люди, через произведения автора, принадлежат без исключения всем, каждый готов с ними делать всё, что ему вздумается.
Но вдохновение - вещь очень капризная, для нового произведения нужны новые истории, новые люди, новые мысли, новые потрясения, необходимо, чтобы всё вокруг находилось в постоянном движении, жизнь кипела и бурлила, порой до глубины души шокируя.
В состоянии вдохновения автор уже не властен над собой, он подчиняется порывам творчества и следуя за каждой новой строчкой, за каждым новым открытием он не может быть привязан к тем, кто любит и ждёт его.
Кристалл вдохновения разбился, но кто знает, возможно жизнь подарит новый кристалл. К сожалению всё, что когда-то было, уже невозможно будет вернуть, появятся новые люди, новая муза, новая жизнь но всё в том же, восстановленном после пожара доме...
[Профиль]  [ЛС] 
Показать сообщения:    
Ответить на тему

Текущее время: Сегодня 08:11

Часовой пояс: GMT + 4



Вы не можете начинать темы
Вы не можете отвечать на сообщения
Вы не можете редактировать свои сообщения
Вы не можете удалять свои сообщения
Вы не можете голосовать в опросах
Вы не можете прикреплять файлы к сообщениям
Вы не можете скачивать файлы

▼ Вниз