Уважаемый Гость!
Вы можете поддержать проект и зарегистрироваться у наших партнеров - онлайн-стратегия MyLands. При регистрации в игре Вы получите код, который сможете активировать после регистрации на pirat.ca и получить 1000 дублонов.

Ваш код:
6e74277781110e9b49c3c0dd24e1bed54391613e
 
     

Реальная белка 2 / The Nut Job 2: Nutty by Nature (Кэллан Брункер / Cal Brunker) [2017 г., мультфильм, фэнтези, боевик, комедия, приключения, семейный, BDRip] Dub [iTunes]

Ответить на тему
 
Автор
Сообщение

Пост 06-Дек-2017 14:51

[Q] 

ara1205

-Реальная белка 2 / The Nut Job 2: Nutty by Nature-- Производство: Корея Южная, Канада
Год выпуска: 2017 г.
Жанр: мультфильм, фэнтези, боевик, комедия, приключения, семейный
Продолжительность: 01:31:13
Перевод: Профессиональный (полное дублирование) [iTunes]-Режиссёр: Кэллан Брункер / Cal Brunker-В ролях: Уилл Арнетт, Кэтрин Хейгл, Майя Рудольф, Джеки Чан, Изабела Монер, Петер Стормаре, Бобби Каннавейл, Бобби Мойнахан, Джефф Данэм, Габриэль Иглесиас-Описание: В продолжении веселых хвостатых приключений белке Злюку и его друзьям снова нужно действовать сообща. На сей раз — чтобы спасти свой дом: мэр города задумал вырубить их парк и построить на его месте бездушные аттракционы… К счастью, у Злюка и других любителей арахиса есть план, не последняя роль в котором отведена новым друзьям наших героев — белым мышам под предводительством мудрого мистера Фэнга.- -Качество видео: BDRip
Контейнер: AVI
Видео кодек: XviD
Аудио кодек: AC3
Видео: 704х384, 23,976 fps, 1834 Kbps, 0.283 bits/pixel
Аудио: 48 kHz, AC3 Dolby Digital, 6 ch, 384 Kbps
Cубтитры: отсутствуют-
Общее
Полное имя : C:\Users\Admin\Pictures\Реальная белка 2\Realnaya.Belka.II.2017.BDRip.[pirat.ca].avi
Формат : AVI
Формат/Информация : Audio Video Interleave
Размер файла : 1,42 Гбайт
Продолжительность : 1 ч. 31 м.
Общий поток : 2227 Кбит/сек
Программа кодирования : VirtualDubMod 1.5.10.2 (build 2540/release)
Библиотека кодирования : VirtualDubMod build 2540/release
Видео
Идентификатор : 0
Формат : MPEG-4 Visual
Профиль формата : Advanced [email protected]
Параметр BVOP формата : 1
Параметр QPel формата : Нет
Параметр GMC формата : Без точки перехода
Параметр матрицы формата : Выборочная
Идентификатор кодека : XVID
Идентификатор кодека/Подсказка : XviD
Продолжительность : 1 ч. 31 м.
Битрейт : 1834 Кбит/сек
Ширина : 704 пикселя
Высота : 384 пикселя
Соотношение сторон : 1,85:1
Частота кадров : 23,976 кадра/сек
Цветовое пространство : YUV
Субдискретизация насыщенности : 4:2:0
Битовая глубина : 8 бит
Тип развёртки : Прогрессивная
Метод сжатия : С потерями
Бит/(Пиксели*Кадры) : 0.283
Размер потока : 1,17 Гбайт (82%)
Библиотека кодирования : XviD 73
Аудио
Идентификатор : 1
Формат : AC-3
Формат/Информация : Audio Coding 3
Расширение режима : CM (complete main)
Параметр Endianness формата : Big
Идентификатор кодека : 2000
Продолжительность : 1 ч. 31 м.
Вид битрейта : Постоянный
Битрейт : 384 Кбит/сек
Каналы : 6 каналов
Расположение каналов : Front: L C R, Side: L R, LFE
Частота : 48,0 КГц
Битовая глубина : 16 бит
Метод сжатия : С потерями
Размер потока : 250 Мбайт (17%)
Выравнивание : Разделение по промежуткам
Продолжительность промежутка : 42 мс. (1,00 видеокадр)
Время предзагрузки промежутка : 500 мс.
-
-
Download / Скачать

Хотите скачать бесплатно? Зарегистрируйтесь на сайте (ссылка на регистрацию). Pirat.ca - самый быстрый торрент трекер в рунете!

Как скачивать  ·   Что такое торрент  ·   Рейтинг и ограничения

Aleks44

Гроза морей

Пост 06-Дек-2017 17:00 (спустя 2 часа 8 минут)

[Q] 

Смешной мульт
[Профиль]  [ЛС] 

demon-292

Корсар

Пост 06-Дек-2017 19:45 (спустя 2 часа 45 минут)

[Q] 

Спасибо, мелкому посмотреть будет чего! Лови бочку
[Профиль]  [ЛС] 

cv1979

Шкипер

Пост 06-Дек-2017 20:57 (спустя 1 час 12 минут)

[Q] 

смасибо Пиратка рулит! Лови бочку
[Профиль]  [ЛС] 

baltimor30

Корсар

Пост 06-Дек-2017 21:11 (спустя 13 минут)

[Q] 

Хоть что-то новенькое, ребенок уже рад заранее
[Профиль]  [ЛС] 

hevard

Гроза морей

2157

Пост 08-Дек-2017 00:25 (спустя 1 день 3 часа)

[Q] 

Огось, а я и первый не видел... Пошёл искать. )))

_________________
-Я старый пират и не знаю слов лицензионного соглашения...
[Профиль]  [ЛС] 

clark

Корсар

Пост 08-Дек-2017 11:04 (спустя 10 часов)

[Q] 

спасибо зачет!!!

_________________
Последним смеётся тот, кто стреляет первым.
[Профиль]  [ЛС] 

Madwarg

Морской Волк

Пост 08-Дек-2017 23:53 (спустя 12 часов)

[Q] 

Спасибо! унес

_________________
Я не Морской Волк, я Корсар! Просто немногословный... ;)
[Профиль]  [ЛС] 

fishman

Флибустьер

Пост 09-Дек-2017 22:48 (спустя 22 часа)

[Q] 

Спасибо!!! rum

_________________
|___|___|___|___|___|___|___|__|__
__|__|__|_Биться головой_|___|___|
|___|___|___|__сюда!!___|___|__|__
__|___|___|___|___|___|___|__|__
[Профиль]  [ЛС] 
Показать сообщения:    
Ответить на тему

Текущее время: Сегодня 13:35

Часовой пояс: GMT + 4



Вы не можете начинать темы
Вы не можете отвечать на сообщения
Вы не можете редактировать свои сообщения
Вы не можете удалять свои сообщения
Вы не можете голосовать в опросах
Вы не можете прикреплять файлы к сообщениям
Вы не можете скачивать файлы

▼ Вниз