Уважаемый Гость!
Вы можете поддержать проект и зарегистрироваться у наших партнеров - онлайн-стратегия MyLands. При регистрации в игре Вы получите код, который сможете активировать после регистрации на pirat.ca и получить 1000 дублонов.

Ваш код:
6e74277781110e9b49c3c0dd24e1bed54391613e
 
     

Джунгли / Jungle (Грег МакЛин / Greg McLean) [2017 г., триллер, драма, приключения, HDRip] Dub [iTunes]

Ответить на тему
 
Автор
Сообщение

Пост 06-Дек-2017 16:35

[Q] 

ara1205

-Джунгли / Jungle-- Производство: Австралия, Колумбия
Год выпуска: 2017 г.
Жанр: триллер, драма, приключения
Продолжительность: 01:55:22
Мировая премьера: 3 августа 2017
Российская премьера: 2 ноября 2017
Дата выхода DVD: 22 января 2018
Дата выхода Blu-Ray: 22 января 2018
Перевод: Профессиональный (полное дублирование) [iTunes]-Режиссёр: Грег МакЛин / Greg McLean-В ролях: Дэниэл Рэдклифф, Томас Кречман, Алекс Расселл, Джоэль Джексон, Лили Салливан, Ясмин Кассим, Яцек Коман, Луис Лопез, Энджи Милликен-Описание: Группа друзей отправляется в непроходимые джунгли Боливии в поисках экзотических впечатлений. Однако когда проводник исчезает и приятели остаются один на один с дикой природой, путешествие, начавшееся как забавное приключение, превращается в борьбу за выживание.- -Качество видео: HDRip
Контейнер: AVI
Видео кодек: XviD
Аудио кодек: AC3
Видео: 720х304, 23,976 fps, 1340 Kbps, 0.255 bits/pixel
Аудио: 48 kHz, AC3 Dolby Digital, 6 ch, 384 Kbps
Cубтитры: отсутствуют-
Общее
Полное имя : C:\Users\Admin\Pictures\Джунгли\Dgungle.2017.HDRip.[pirat.ca].avi
Формат : AVI
Формат/Информация : Audio Video Interleave
Размер файла : 1,40 Гбайт
Продолжительность : 1 ч. 55 м.
Общий поток : 1734 Кбит/сек
Программа кодирования : VirtualDubMod 1.5.10.2 (build 2540/release)
Библиотека кодирования : VirtualDubMod build 2540/release
Видео
Идентификатор : 0
Формат : MPEG-4 Visual
Профиль формата : Advanced [email protected]
Параметр BVOP формата : 1
Параметр QPel формата : Нет
Параметр GMC формата : Без точки перехода
Параметр матрицы формата : Выборочная
Идентификатор кодека : XVID
Идентификатор кодека/Подсказка : XviD
Продолжительность : 1 ч. 55 м.
Битрейт : 1340 Кбит/сек
Ширина : 720 пикселей
Высота : 304 пикселя
Соотношение сторон : 2,35:1
Частота кадров : 23,976 кадра/сек
Цветовое пространство : YUV
Субдискретизация насыщенности : 4:2:0
Битовая глубина : 8 бит
Тип развёртки : Прогрессивная
Метод сжатия : С потерями
Бит/(Пиксели*Кадры) : 0.255
Размер потока : 1,08 Гбайт (77%)
Библиотека кодирования : XviD 73
Аудио
Идентификатор : 1
Формат : AC-3
Формат/Информация : Audio Coding 3
Расширение режима : CM (complete main)
Параметр Endianness формата : Big
Идентификатор кодека : 2000
Продолжительность : 1 ч. 55 м.
Вид битрейта : Постоянный
Битрейт : 384 Кбит/сек
Каналы : 6 каналов
Расположение каналов : Front: L C R, Side: L R, LFE
Частота : 48,0 КГц
Битовая глубина : 16 бит
Метод сжатия : С потерями
Размер потока : 317 Мбайт (22%)
Выравнивание : Разделение по промежуткам
Продолжительность промежутка : 42 мс. (1,00 видеокадр)
Время предзагрузки промежутка : 500 мс.
-
-
Download / Скачать

Хотите скачать бесплатно? Зарегистрируйтесь на сайте (ссылка на регистрацию). Pirat.ca - самый быстрый торрент трекер в рунете!

Как скачивать  ·   Что такое торрент  ·   Рейтинг и ограничения

Кристина119

Флибустьер

Пост 06-Дек-2017 17:36 (спустя 1 час 1 минута)

[Q] 

Спасибо, забираю Лови бочку
[Профиль]  [ЛС] 

tse

Корсар

Пост 06-Дек-2017 22:49 (спустя 5 часов)

[Q] 

Хорош фильм! Редклифф пришелся ко двору. Рекомендую!
[Профиль]  [ЛС] 

Vladimir-Viking

Канонир

Пост 07-Дек-2017 12:32 (спустя 13 часов)

[Q] 

Очень хороший фильм. Рекомендую к просмотру. Жаль, что мало таких фильмов...
[Профиль]  [ЛС] 

Алекссандра_2013

Канонир

Пост 08-Дек-2017 13:56 (спустя 1 день 1 час)

[Q] 

Как же я его ждала!) СПАСИБО!
[Профиль]  [ЛС] 

shelby290

Флибустьер

Пост 08-Дек-2017 22:30 (спустя 8 часов)

[Q] 

Хороший фильм!
[Профиль]  [ЛС] 

ntvsx

Морской Волк

Пост 08-Дек-2017 22:30 (спустя 1 секунда)

[Q] 

Классный фильм!
[Профиль]  [ЛС] 

Serprim

Лоцман

Пост 09-Дек-2017 13:06 (спустя 14 часов)

[Q] 

Фильм может и ничего, но звук отстает, со средины фильма очень сильно, наверно не досмотрю..
[Профиль]  [ЛС] 

clark

Корсар

Пост 09-Дек-2017 19:59 (спустя 6 часов)

[Q] 

спасибо за фильмец!!!

_________________
Последним смеётся тот, кто стреляет первым.
[Профиль]  [ЛС] 

fishman

Флибустьер

Пост 09-Дек-2017 22:42 (спустя 2 часа 43 минуты)

[Q] 

Спасибо!!! rum

_________________
|___|___|___|___|___|___|___|__|__
__|__|__|_Биться головой_|___|___|
|___|___|___|__сюда!!___|___|__|__
__|___|___|___|___|___|___|__|__
[Профиль]  [ЛС] 

dl22

Морской Волк

Пост Вчера 10:18 (спустя 11 часов)

[Q] 

Лови бочку Смотрибельно!
[Профиль]  [ЛС] 
Показать сообщения:    
Ответить на тему

Текущее время: Сегодня 13:35

Часовой пояс: GMT + 4



Вы не можете начинать темы
Вы не можете отвечать на сообщения
Вы не можете редактировать свои сообщения
Вы не можете удалять свои сообщения
Вы не можете голосовать в опросах
Вы не можете прикреплять файлы к сообщениям
Вы не можете скачивать файлы

▼ Вниз