Уважаемый Гость!
Вы можете поддержать проект и зарегистрироваться у наших партнеров - онлайн-стратегия MyLands. При регистрации в игре Вы получите код, который сможете активировать после регистрации на pirat.ca и получить 1000 дублонов.

Ваш код:
6e74277781110e9b49c3c0dd24e1bed54391613e
 
     

Арсенал / Arsenal (Стивен С. Миллер / Steven C. Miller) [2017 г., боевик, триллер, криминал, BDRip] MVO [iTunes]

Ответить на тему
 
Автор
Сообщение

Пост 06-Дек-2017 18:24

[Q] 

ara1205

-Арсенал / Arsenal-- Производство: США
Год выпуска: 2017 г.
Жанр: боевик, триллер, криминал
Продолжительность: 01:32:15
Перевод: Профессиональный (многоголосый, закадровый) [iTunes]-Режиссёр: Стивен С. Миллер / Steven C. Miller-В ролях: Николас Кейдж, Джон Кьюсак, Адриан Гренье, Джонатон Шек, Лидия Халл, Хезер Йохансен, Марк МакКалло, Эбби Гэйл, Кристофер Коппола-Описание: Два брата вместе выросли на улице, но во взрослой жизни их дороги расходятся на многие годы. Один вырывается из бедности, устраивается в строительном бизнесе и становится богатым уважаемым человеком. Судьба второго брата совсем иная — занимая невысокое положение в криминальном мире, он с дочерью становится заложником влиятельного авторитета. Только выкуп может вернуть свободу, и теперь их жизни зависят от брата.- -Качество видео: BDRip
Контейнер: AVI
Видео кодек: XviD
Аудио кодек: AC3
Видео: 720х304, 23,976 fps, 1809 Kbps, 0.345 bits/pixel
Аудио: 48 kHz, AC3 Dolby Digital, 6 ch, 384 Kbps
Cубтитры: отсутствуют-
Общее
Полное имя : C:\Users\Admin\Pictures\Арсенал\Arsenal.2017.BDRip.[pirat.ca].avi
Формат : AVI
Формат/Информация : Audio Video Interleave
Размер файла : 1,42 Гбайт
Продолжительность : 1 ч. 32 м.
Общий поток : 2202 Кбит/сек
Программа кодирования : VirtualDubMod 1.5.10.2 (build 2540/release)
Библиотека кодирования : VirtualDubMod build 2540/release
Видео
Идентификатор : 0
Формат : MPEG-4 Visual
Профиль формата : Advanced [email protected]
Параметр BVOP формата : 1
Параметр QPel формата : Нет
Параметр GMC формата : Без точки перехода
Параметр матрицы формата : Выборочная
Идентификатор кодека : XVID
Идентификатор кодека/Подсказка : XviD
Продолжительность : 1 ч. 32 м.
Битрейт : 1809 Кбит/сек
Ширина : 720 пикселей
Высота : 304 пикселя
Соотношение сторон : 2,35:1
Частота кадров : 23,976 кадра/сек
Цветовое пространство : YUV
Субдискретизация насыщенности : 4:2:0
Битовая глубина : 8 бит
Тип развёртки : Прогрессивная
Метод сжатия : С потерями
Бит/(Пиксели*Кадры) : 0.345
Размер потока : 1,17 Гбайт (82%)
Библиотека кодирования : XviD 73
Аудио
Идентификатор : 1
Формат : AC-3
Формат/Информация : Audio Coding 3
Расширение режима : CM (complete main)
Параметр Endianness формата : Big
Идентификатор кодека : 2000
Продолжительность : 1 ч. 32 м.
Вид битрейта : Постоянный
Битрейт : 384 Кбит/сек
Каналы : 6 каналов
Расположение каналов : Front: L C R, Side: L R, LFE
Частота : 48,0 КГц
Битовая глубина : 16 бит
Метод сжатия : С потерями
Размер потока : 253 Мбайт (17%)
Выравнивание : Разделение по промежуткам
Продолжительность промежутка : 42 мс. (1,00 видеокадр)
Время предзагрузки промежутка : 500 мс.
-
-
Download / Скачать

Хотите скачать бесплатно? Зарегистрируйтесь на сайте (ссылка на регистрацию). Pirat.ca - самый быстрый торрент трекер в рунете!

Как скачивать  ·   Что такое торрент  ·   Рейтинг и ограничения

Kir_18

Штурман

Пост 06-Дек-2017 18:36 (спустя 11 минут)

[Q] 

Кейдж с усами? омг
[Профиль]  [ЛС] 

jbin2008

Шкипер

Пост 06-Дек-2017 21:30 (спустя 2 часа 54 минуты)

[Q] 

814002Кейдж с усами? омг
Да он дофига, где с усами и бородой снимлся. А вот постер.... как-будто это индийское кино bk
[Профиль]  [ЛС] 

Aurums

Корсар

Пост 07-Дек-2017 22:25 (спустя 1 день)

[Q] 

814012
814002Кейдж с усами? омг
Да он дофига, где с усами и бородой снимлся. А вот постер.... как-будто это индийское кино bk
)))) Постер Индия 100%))
[Профиль]  [ЛС] 
Показать сообщения:    
Ответить на тему

Текущее время: Сегодня 13:36

Часовой пояс: GMT + 4



Вы не можете начинать темы
Вы не можете отвечать на сообщения
Вы не можете редактировать свои сообщения
Вы не можете удалять свои сообщения
Вы не можете голосовать в опросах
Вы не можете прикреплять файлы к сообщениям
Вы не можете скачивать файлы

▼ Вниз