Уважаемый Гость!
Вы можете поддержать проект и зарегистрироваться у наших партнеров - онлайн-стратегия MyLands. При регистрации в игре Вы получите код, который сможете активировать после регистрации на pirat.ca и получить 1000 дублонов.

Ваш код:
6e74277781110e9b49c3c0dd24e1bed54391613e
 
     

В гостях у Элис / Home Again (Холли Мейерс-Шайер / Hallie Meyers-Shyer) [2017 г., драма, мелодрама, комедия, BDRip] Dub [iTunes]

Ответить на тему
 
Автор
Сообщение

Пост 06-Дек-2017 19:35

[Q] 

ara1205

-В гостях у Элис / Home Again-- Производство: США
Год выпуска: 2017 г.
Жанр: драма, мелодрама, комедия
Продолжительность: 01:37:15
Мировая премьера: 7 сентября 2017
Российская премьера: 7 сентября 2017
Перевод: Профессиональный (полное дублирование) [iTunes]-Режиссёр: Холли Мейерс-Шайер / Hallie Meyers-Shyer-В ролях: Риз Уизерспун, Майкл Шин, Нат Вулф, Лэйк Белл, Пико Александр, Кэндис Берген, Лола Флэнери, Джон Рудницкий, Кристин Вудс, Рейд Скотт-Описание: Жизнь матери-одиночки из Лос-Анджелеса неожиданно меняется, когда она разрешает трем парням пожить у нее.- -Качество видео: BDRip
Контейнер: AVI
Видео кодек: XviD
Аудио кодек: AC3
Видео: 704х384, 23,976 fps, 1693 Kbps, 0.261 bits/pixel
Аудио: 48 kHz, AC3 Dolby Digital, 6 ch, 384 Kbps
Cубтитры: отсутствуют-
Общее
Полное имя : C:\Users\Admin\Pictures\В гостях у Элис\V.Gostyah.Y.Elis.2017.BDRip.[pirat.ca].avi
Формат : AVI
Формат/Информация : Audio Video Interleave
Размер файла : 1,42 Гбайт
Продолжительность : 1 ч. 37 м.
Общий поток : 2086 Кбит/сек
Программа кодирования : VirtualDubMod 1.5.10.2 (build 2540/release)
Библиотека кодирования : VirtualDubMod build 2540/release
Видео
Идентификатор : 0
Формат : MPEG-4 Visual
Профиль формата : Advanced [email protected]
Параметр BVOP формата : 1
Параметр QPel формата : Нет
Параметр GMC формата : Без точки перехода
Параметр матрицы формата : Выборочная
Идентификатор кодека : XVID
Идентификатор кодека/Подсказка : XviD
Продолжительность : 1 ч. 37 м.
Битрейт : 1693 Кбит/сек
Ширина : 704 пикселя
Высота : 384 пикселя
Соотношение сторон : 1,85:1
Частота кадров : 23,976 кадра/сек
Цветовое пространство : YUV
Субдискретизация насыщенности : 4:2:0
Битовая глубина : 8 бит
Тип развёртки : Прогрессивная
Метод сжатия : С потерями
Бит/(Пиксели*Кадры) : 0.261
Размер потока : 1,15 Гбайт (81%)
Библиотека кодирования : XviD 73
Аудио
Идентификатор : 1
Формат : AC-3
Формат/Информация : Audio Coding 3
Расширение режима : CM (complete main)
Параметр Endianness формата : Big
Идентификатор кодека : 2000
Продолжительность : 1 ч. 37 м.
Вид битрейта : Постоянный
Битрейт : 384 Кбит/сек
Каналы : 6 каналов
Расположение каналов : Front: L C R, Side: L R, LFE
Частота : 48,0 КГц
Битовая глубина : 16 бит
Метод сжатия : С потерями
Размер потока : 267 Мбайт (18%)
Выравнивание : Разделение по промежуткам
Продолжительность промежутка : 42 мс. (1,00 видеокадр)
Время предзагрузки промежутка : 500 мс.
-
-
Download / Скачать

Хотите скачать бесплатно? Зарегистрируйтесь на сайте (ссылка на регистрацию). Pirat.ca - самый быстрый торрент трекер в рунете!

Как скачивать  ·   Что такое торрент  ·   Рейтинг и ограничения

zmaksimz

Корсар

Пост 07-Дек-2017 14:41 (спустя 19 часов)

[Q] 

Да, Риз Уизерспун видно постарела, но ради нее только посмотрю
Нравится эта актриса )))
На форуме  [Профиль]  [ЛС] 

clark

Корсар

Пост 07-Дек-2017 23:49 (спустя 9 часов)

[Q] 

посмотрим спасибо!

_________________
Последним смеётся тот, кто стреляет первым.
[Профиль]  [ЛС] 

hevard

Гроза морей

2157

Пост 08-Дек-2017 00:21 (спустя 31 минута)

[Q] 

814045Да, Риз Уизерспун видно постарела, но ради нее только посмотрю
Нравится эта актриса )))
Ну, вы ещё Дрю Берримор вспомните из "E.T." Все мы стареем... ))))

_________________
-Я старый пират и не знаю слов лицензионного соглашения...
[Профиль]  [ЛС] 

Madwarg

Морской Волк

Пост 08-Дек-2017 23:54 (спустя 23 часа)

[Q] 

Спасибо! Лови бочку

_________________
Я не Морской Волк, я Корсар! Просто немногословный... ;)
[Профиль]  [ЛС] 
Показать сообщения:    
Ответить на тему

Текущее время: Сегодня 13:36

Часовой пояс: GMT + 4



Вы не можете начинать темы
Вы не можете отвечать на сообщения
Вы не можете редактировать свои сообщения
Вы не можете удалять свои сообщения
Вы не можете голосовать в опросах
Вы не можете прикреплять файлы к сообщениям
Вы не можете скачивать файлы

▼ Вниз