Уважаемый Гость!
Вы можете поддержать проект и зарегистрироваться у наших партнеров - онлайн-стратегия MyLands. При регистрации в игре Вы получите код, который сможете активировать после регистрации на pirat.ca и получить 1000 дублонов.

Ваш код:
3c0ec4e8df92a42ad49dced7d63f60af01d156e8
 
     

Ночлежка / Crash Pad (Кевин Тент / Kevin Tent) [2017 г., комедия, WEB-DLRip] MVO [iTunes] + Sub (Rus)

Ответить на тему
 
Автор
Сообщение

Пост 09-Дек-2017 19:57

[Q] 

ara1205

-Ночлежка / Crash Pad-- Производство: США, Канада
Год выпуска: 2017 г.
Жанр: комедия
Продолжительность: 01:33:17
Мировая премьера: 26 сентября 2017
Перевод: Профессиональный (многоголосый, закадровый) [iTunes]-Режиссёр: Кевин Тент / Kevin Tent-В ролях: Нина Добрев, Донал Глисон, Кристина Эпплгейт, Томас Хейден Чёрч, Алийа О’Брайен, Анна Ван Хуфт, Бриттни Ирвин, Нилс Дж Хонестад, Аня Савчич, Владимир Рузич-Описание: Стенслэнд, простак и безнадёжный романтик, верит, что обрёл истинную любовь в лице красавицы Морган. Однако для неё молодой любовник — лишь способ отомстить беспутному мужу, на что тот отвечает равноценной монетой, начав разгульную холостяцкую жизнь… в доме Стенслэнда.- -Качество видео: WEB-DLRip
Контейнер: AVI
Видео кодек: XviD
Аудио кодек: AC3
Видео: 720х304, 23,976 fps, 1849 Kbps, 0.352 bits/pixel
Аудио: 48 kHz, AC3 Dolby Digital, 6 ch, 384 Kbps
Cубтитры: русские (Отдельным файлом)-
Общее
Полное имя : C:\Users\Admin\Pictures\Ночлежка\Nochlegka.2017.WEB-DLRip.[pirat.ca]\Nochlegka.2017.WEB-DLRip.[pirat.ca].avi
Формат : AVI
Формат/Информация : Audio Video Interleave
Размер файла : 1,46 Гбайт
Продолжительность : 1 ч. 33 м.
Общий поток : 2241 Кбит/сек
Программа кодирования : VirtualDubMod 1.5.10.2 (build 2540/release)
Видео
Идентификатор : 0
Формат : MPEG-4 Visual
Профиль формата : Advanced [email protected]
Параметр BVOP формата : 1
Параметр QPel формата : Нет
Параметр GMC формата : Без точки перехода
Параметр матрицы формата : Выборочная
Идентификатор кодека : XVID
Идентификатор кодека/Подсказка : XviD
Продолжительность : 1 ч. 33 м.
Битрейт : 1849 Кбит/сек
Ширина : 720 пикселей
Высота : 304 пикселя
Соотношение сторон : 2,35:1
Частота кадров : 23,976 кадра/сек
Цветовое пространство : YUV
Субдискретизация насыщенности : 4:2:0
Битовая глубина : 8 бит
Тип развёртки : Прогрессивная
Метод сжатия : С потерями
Бит/(Пиксели*Кадры) : 0.352
Размер потока : 1,20 Гбайт (82%)
Библиотека кодирования : XviD 73
Аудио
Идентификатор : 1
Формат : AC-3
Формат/Информация : Audio Coding 3
Расширение режима : CM (complete main)
Параметр Endianness формата : Big
Идентификатор кодека : 2000
Продолжительность : 1 ч. 33 м.
Вид битрейта : Постоянный
Битрейт : 384 Кбит/сек
Каналы : 6 каналов
Расположение каналов : Front: L C R, Side: L R, LFE
Частота : 48,0 КГц
Битовая глубина : 16 бит
Метод сжатия : С потерями
Размер потока : 256 Мбайт (17%)
Выравнивание : Разделение по промежуткам
Продолжительность промежутка : 42 мс. (1,00 видеокадр)
Время предзагрузки промежутка : 500 мс.
-
-
Download / Скачать

Хотите скачать бесплатно? Зарегистрируйтесь на сайте (ссылка на регистрацию). Pirat.ca - самый быстрый торрент трекер в рунете!

Как скачивать  ·   Что такое торрент  ·   Рейтинг и ограничения

bjb13

Корсар

346

Пост 09-Дек-2017 23:02 (спустя 3 часа)

[Q] 

кто посмотрел, стоит качать? трейлер не впечатлил...
[Профиль]  [ЛС] 

ketzer

Корсар

Пост 18-Дек-2017 13:26 (спустя 8 дней)

[Q] 

Очень хорошо. Сюжет забавный, а актёры - глыбищи, матёрые профессионалы.
[Профиль]  [ЛС] 

Пост 13-Янв-2018 10:35 (спустя 25 дней)

Топик был перенесен из форума Новинки (HD|DVD|BD| TV|SAT|PDTV| - Rips) в форум Фильмы 2010 - 2017 г.г.
aleksey99
 
Показать сообщения:    
Ответить на тему

Текущее время: Сегодня 16:29

Часовой пояс: GMT + 4



Вы не можете начинать темы
Вы не можете отвечать на сообщения
Вы не можете редактировать свои сообщения
Вы не можете удалять свои сообщения
Вы не можете голосовать в опросах
Вы не можете прикреплять файлы к сообщениям
Вы не можете скачивать файлы

▼ Вниз