Уважаемый Гость!
Вы можете поддержать проект и зарегистрироваться у наших партнеров - онлайн-стратегия MyLands. При регистрации в игре Вы получите код, который сможете активировать после регистрации на pirat.ca и получить 1000 дублонов.

Ваш код:
3e50cc3f9c5777e426303330af9737fddc2ed4df
 
     

Человек человеку волк / Dog Eat Dog (Пол Шредер / Paul Schrader) [2016 г., триллер, драма, криминал, BDRip] MVO [iTunes]

Ответить на тему
 
Автор
Сообщение

Пост 10-Дек-2017 12:46

[Q] 

ara1205

-Человек человеку волк / Dog Eat Dog-- Производство: США
Год выпуска: 2016 г.
Жанр: триллер, драма, криминал
Продолжительность: 01:32:59
Перевод: Профессиональный (многоголосый, закадровый) [iTunes]-Режиссёр: Пол Шредер / Paul Schrader-В ролях: Николас Кейдж, Уиллем Дефо, Мэтт Кук, Омар Дж. Дорси, Пол Шредер, Луиса Краузе, Рейнальдо Гальегос, Брюс Рейзен-Описание: Троица уголовников получает задание от наркобарона — похитить сына его бывшего партнера. Когда дело идет наперекосяк, похитители пускаются в бега, готовые на всё, лишь бы вновь не оказаться за решеткой.- -Качество видео: BDRip
Контейнер: AVI
Видео кодек: XviD
Аудио кодек: AC3
Видео: 720х304, 23,976 fps, 1791 Kbps, 0.341 bits/pixel
Аудио: 48 kHz, AC3 Dolby Digital, 6 ch, 384 Kbps
Cубтитры: отсутствуют-
Общее
Полное имя : C:\Users\Admin\Pictures\Человек человеку волк\Chelovek.Cheloveku.Volk.2016.BDRip.[pirat.ca].avi
Формат : AVI
Формат/Информация : Audio Video Interleave
Размер файла : 1,42 Гбайт
Продолжительность : 1 ч. 32 м.
Общий поток : 2184 Кбит/сек
Название фильма : pirat.ca
Программа кодирования : VirtualDubMod 1.5.10.2 (build 2540/release)
Видео
Идентификатор : 0
Формат : MPEG-4 Visual
Профиль формата : Advanced [email protected]
Параметр BVOP формата : 1
Параметр QPel формата : Нет
Параметр GMC формата : Без точки перехода
Параметр матрицы формата : Выборочная
Идентификатор кодека : XVID
Идентификатор кодека/Подсказка : XviD
Продолжительность : 1 ч. 32 м.
Битрейт : 1791 Кбит/сек
Ширина : 720 пикселей
Высота : 304 пикселя
Соотношение сторон : 2,35:1
Частота кадров : 23,976 кадра/сек
Цветовое пространство : YUV
Субдискретизация насыщенности : 4:2:0
Битовая глубина : 8 бит
Тип развёртки : Прогрессивная
Метод сжатия : С потерями
Бит/(Пиксели*Кадры) : 0.341
Размер потока : 1,16 Гбайт (82%)
Библиотека кодирования : XviD 73
Аудио
Идентификатор : 1
Формат : AC-3
Формат/Информация : Audio Coding 3
Расширение режима : CM (complete main)
Параметр Endianness формата : Big
Идентификатор кодека : 2000
Продолжительность : 1 ч. 32 м.
Вид битрейта : Постоянный
Битрейт : 384 Кбит/сек
Каналы : 6 каналов
Расположение каналов : Front: L C R, Side: L R, LFE
Частота : 48,0 КГц
Битовая глубина : 16 бит
Метод сжатия : С потерями
Размер потока : 255 Мбайт (18%)
Выравнивание : Разделение по промежуткам
Продолжительность промежутка : 42 мс. (1,00 видеокадр)
Время предзагрузки промежутка : 500 мс.
-
-
Download / Скачать

Хотите скачать бесплатно? Зарегистрируйтесь на сайте (ссылка на регистрацию). Pirat.ca - самый быстрый торрент трекер в рунете!

Как скачивать  ·   Что такое торрент  ·   Рейтинг и ограничения

hevard

Гроза морей

2157

Пост 11-Дек-2017 07:28 (спустя 18 часов)

[Q] 

Аххаха.... 3 отрицательных отзыва и ни одного положительного...
По ходу, фильмы, где фигурирует Кейдж, можно уже смело сливать фтопку...
Цапанул Дэфо... но почитав Кинопоиск, понял, что тут он случайно оказался...
И это печально!

_________________
-Я старый пират и не знаю слов лицензионного соглашения...
[Профиль]  [ЛС] 

realleo

Корсар

Пост 15-Дек-2017 03:05 (спустя 3 дня)

[Q] 

так что делать то? смотреть или не смотреть?
[Профиль]  [ЛС] 

avelinio

Штурман

Пост 16-Дек-2017 10:06 (спустя 1 день 7 часов)

[Q] 

смотреть всем! чтобы мне не обидно было, что смотрел эту мутотень ... правда до конца не осилил - выбросил комп с окна)))
[Профиль]  [ЛС] 

Пост 13-Янв-2018 10:32 (спустя 28 дней)

Топик был перенесен из форума Новинки (HD|DVD|BD| TV|SAT|PDTV| - Rips) в форум Фильмы 2010 - 2017 г.г.
aleksey99
 
Показать сообщения:    
Ответить на тему

Текущее время: Сегодня 18:52

Часовой пояс: GMT + 4



Вы не можете начинать темы
Вы не можете отвечать на сообщения
Вы не можете редактировать свои сообщения
Вы не можете удалять свои сообщения
Вы не можете голосовать в опросах
Вы не можете прикреплять файлы к сообщениям
Вы не можете скачивать файлы

▼ Вниз