Дом моих кошмаров / Bethany (Джеймс Каллен Брэссак / James Cullen Bressack) [2017 г., ужасы, WEB-DLRip] Dub [iTunes]

Ответить на тему
 
Автор
Сообщение

Пост 12-Дек-2017 21:50

[Q] 

ara1205

-Дом моих кошмаров / Bethany-- Производство: США
Год выпуска: 2017 г.
Жанр: ужасы
Продолжительность: 01:30:06
Российская премьера: 5 октября 2017
Перевод: Профессиональный (полное дублирование) [iTunes]-Режиссёр: Джеймс Каллен Брэссак / James Cullen Bressack-В ролях: Стефани Эстес, Зак Уорд, Том Грин, Шеннен Доэрти, Анна Харрис, Леон Рассом, Кевин Портер, Кит Джардин, Софи Ди, Фелисса Роуз-Описание: Клэр вместе с мужем переезжает в свой старый дом после смерти матери. В доме своего детства к женщине возвращаются мрачные и тяжелые воспоминания, Клэр оказывается в тумане своего прошлого, в котором блуждает что-то совершенно непонятное и загадочное. И это что-то, похоже, пытается связаться с ней.- -Качество видео: WEB-DLRip
Контейнер: AVI
Видео кодек: XviD
Аудио кодек: AC3
Видео: 720х384, 23,976 fps, 1928 Kbps, 0.291 bits/pixel
Аудио: 48 kHz, AC3 Dolby Digital, 6 ch, 384 Kbps
Cубтитры: отсутствуют-
Общее
Полное имя : C:\Users\Admin\Pictures\Дом моих кошмаров\Dom.Moih.Koshmarov.2017.WEB-DLRip.[pirat.ca].avi
Формат : AVI
Формат/Информация : Audio Video Interleave
Размер файла : 1,46 Гбайт
Продолжительность : 1 ч. 30 м.
Общий поток : 2321 Кбит/сек
Программа кодирования : VirtualDubMod 1.5.10.3 | www.virtualdub-fr.org || (build 2550/release)
Видео
Идентификатор : 0
Формат : MPEG-4 Visual
Профиль формата : Advanced [email protected]
Параметр BVOP формата : 1
Параметр QPel формата : Нет
Параметр GMC формата : Без точки перехода
Параметр матрицы формата : Выборочная
Идентификатор кодека : XVID
Идентификатор кодека/Подсказка : XviD
Продолжительность : 1 ч. 30 м.
Битрейт : 1928 Кбит/сек
Ширина : 720 пикселей
Высота : 384 пикселя
Соотношение сторон : 1,85:1
Частота кадров : 23,976 кадра/сек
Цветовое пространство : YUV
Субдискретизация насыщенности : 4:2:0
Битовая глубина : 8 бит
Тип развёртки : Прогрессивная
Метод сжатия : С потерями
Бит/(Пиксели*Кадры) : 0.291
Размер потока : 1,21 Гбайт (83%)
Библиотека кодирования : XviD 65
Аудио
Идентификатор : 1
Формат : AC-3
Формат/Информация : Audio Coding 3
Расширение режима : CM (complete main)
Параметр Endianness формата : Big
Идентификатор кодека : 2000
Продолжительность : 1 ч. 30 м.
Вид битрейта : Постоянный
Битрейт : 384 Кбит/сек
Каналы : 6 каналов
Расположение каналов : Front: L C R, Side: L R, LFE
Частота : 48,0 КГц
Битовая глубина : 16 бит
Метод сжатия : С потерями
Размер потока : 247 Мбайт (17%)
Выравнивание : Разделение по промежуткам
Продолжительность промежутка : 42 мс. (1,00 видеокадр)
Время предзагрузки промежутка : 500 мс.
-
-
Download / Скачать

Хотите скачать бесплатно? Зарегистрируйтесь на сайте (ссылка на регистрацию). Pirat.ca - самый быстрый торрент трекер в рунете!

Как скачивать  ·   Что такое торрент  ·   Рейтинг и ограничения

D_Ex

Корсар

103

Пост 16-Дек-2017 12:34 (спустя 3 дня)

[Q] 

Как они все достали со своими переездами в свой собственный дом! Походу американцев их же собственная индустрия развлечений считает настолько тупыми, что подобными фильмами пытаются расформировать их образ мечты о собственном доме.
Прям вот что не очередная страшилка, так обязательно кто-то в старый дом переезжает.
А ещё злом нужно представить детей, чтоб поменьше плодились.
[Профиль]  [ЛС] 

Gari4

Флибустьер

Пост 19-Дек-2017 23:58 (спустя 3 дня)

[Q] 

Муть какая-то. Трафик потрачен зря!

_________________
РЕБЯТ!! Подпишитесь на канал! Вам все равно, а мне приятно))
https://www.youtube.com/channel/UCHdnAvKKhkxeJvg3DQ...ew_as=subscriber
[Профиль]  [ЛС] 

Алекссандра_2013

Лоцман

Пост 21-Дек-2017 10:22 (спустя 1 день 10 часов)

[Q] 

жесть.... мне не понравился
[Профиль]  [ЛС] 

Пост 13-Янв-2018 10:35 (спустя 23 дня)

Топик был перенесен из форума Новинки (HD|DVD|BD| TV|SAT|PDTV| - Rips) в форум Фильмы 2010 - 2017 г.г.
aleksey99
 
Показать сообщения:    
Ответить на тему

Текущее время: Сегодня 05:20

Часовой пояс: GMT + 4



Вы не можете начинать темы
Вы не можете отвечать на сообщения
Вы не можете редактировать свои сообщения
Вы не можете удалять свои сообщения
Вы не можете голосовать в опросах
Вы не можете прикреплять файлы к сообщениям
Вы не можете скачивать файлы

Майнать ▼