Скайлайн 2 / Beyond Skyline (Лайам О’Доннелл / Liam O'Donnell) [2017 г., ужасы, фантастика, боевик, триллер, приключения, BDRip-AVC] Dub [iTunes]

Ответить на тему
 
Автор
Сообщение

Пост 01-Янв-2018 16:00

[Q] 

aleksey99

--Скайлайн 2 / Beyond Skyline-- Производство: Сингапур, Великобритания, Индонезия, Канада, США / Beyond The Mothership, Infinite Frameworks Pte. Ltd., Head Gear Films
Год выпуска: 2017 г.
Жанр: ужасы, фантастика, боевик, триллер, приключения
Продолжительность: 01:46:38--Мировая премьера: 14 октября 2017
Российская премьера: 26 октября 2017
Цифровой релиз: 28 декабря 2017, «Megogo Distribution»--Перевод: Профессиональный (полное дублирование) [iTunes]--Режиссер: Лайам О’Доннелл / Liam O'Donnell)--В ролях: Фрэнк Грилло, Бояна Новакович, Ико Уайс, Каллэн Мулвей, Валентайн Пайен, Бетти Гэбриел, Джек Чоссе, Кевин О’Доннелл, Крис Т. Адамс, Тони Блэк--Описание: В мире — хаос и паника. Небо закрыли нависающие над городами космические корабли, которые через огромные столпы света затягивают к себе на борт тысячи людей прямо с улиц. Чтобы найти похищенного сына, бесстрашному детективу придется проникнуть на корабль агрессивных пришельцев, отбить атаку этих разъяренных тварей и… попытаться вернуть планету землянам.-- --Качество видео: BDRip-AVC
Контейнер: AVI
Видео кодек: XviD
Аудио кодек: AC3
Видео: AVC, 936x392 (2.40:1), 1512 kbps, 23,976 fps, 0.172 bit/pixel
Аудио: 48 kHz, AC3 Dolby Digital, 3/2 (L,C,R,l,r) + LFE ch, ~384 kbps
Cубтитры: отсутствуют.
Общее
Уникальный идентификатор : 251860827717969375678905576602082012241 (0xBD7AA188B1667AC1854EE5D68438EC51)
Полное имя : H:\Torrent2\Skaylayn.2.2017.RUS.BDRip.x264.mkv
Формат : Matroska
Версия формата : Version 4 / Version 2
Размер файла : 1,41 Гбайт
Продолжительность : 1 ч. 46 м.
Общий поток : 1897 Кбит/сек
Название фильма : Beyond Skyline (2017)
Дата кодирования : UTC 2018-01-01 10:25:21
Программа кодирования : mkvmerge v5.9.0 ('On The Loose') built on Dec 15 2012 16:39:58
Библиотека кодирования : libebml v1.3.0 + libmatroska v1.4.0
Видео
Идентификатор : 1
Формат : AVC
Формат/Информация : Advanced Video Codec
Профиль формата : [email protected]
Параметр CABAC формата : Да
Параметр ReFrames формата : 12 кадров
Идентификатор кодека : V_MPEG4/ISO/AVC
Продолжительность : 1 ч. 46 м.
Битрейт : 1512 Кбит/сек
Ширина : 936 пикселей
Высота : 392 пикселя
Соотношение сторон : 2,40:1
Режим частоты кадров : Постоянный
Частота кадров : 23,976 (24000/1001) кадра/сек
Цветовое пространство : YUV
Субдискретизация насыщенности : 4:2:0
Битовая глубина : 8 бит
Тип развёртки : Прогрессивная
Бит/(Пиксели*Кадры) : 0.172
Размер потока : 1,10 Гбайт (78%)
Заголовок : potroks
Библиотека кодирования : x264 core 152 r2851M ba24899
Настройки программы : cabac=1 / ref=12 / deblock=1:-1:-1 / analyse=0x3:0x133 / me=umh / subme=11 / psy=1 / psy_rd=1.00:0.05 / mixed_ref=1 / me_range=48 / chroma_me=1 / trellis=2 / 8x8dct=1 / cqm=0 / deadzone=21,11 / fast_pskip=0 / chroma_qp_offset=-3 / threads=9 / lookahead_threads=2 / sliced_threads=0 / nr=0 / decimate=0 / interlaced=0 / bluray_compat=0 / constrained_intra=0 / bframes=12 / b_pyramid=2 / b_adapt=2 / b_bias=0 / direct=3 / weightb=1 / open_gop=0 / weightp=2 / keyint=240 / keyint_min=23 / scenecut=40 / intra_refresh=0 / rc_lookahead=100 / rc=2pass / mbtree=0 / bitrate=1512 / ratetol=1.0 / qcomp=0.70 / qpmin=0 / qpmax=69 / qpstep=4 / cplxblur=20.0 / qblur=0.5 / vbv_maxrate=52000 / vbv_bufsize=50000 / nal_hrd=none / filler=0 / ip_ratio=1.40 / pb_ratio=1.30 / aq=2:0.80
Язык : English
Default : Да
Forced : Нет
Аудио
Идентификатор : 2
Формат : AC-3
Формат/Информация : Audio Coding 3
Расширение режима : CM (complete main)
Параметр Endianness формата : Big
Идентификатор кодека : A_AC3
Продолжительность : 1 ч. 46 м.
Вид битрейта : Постоянный
Битрейт : 384 Кбит/сек
Каналы : 6 каналов
Расположение каналов : Front: L C R, Side: L R, LFE
Частота : 48,0 КГц
Частота кадров : 31,250 кадров/сек (1536 spf)
Метод сжатия : С потерями
Размер потока : 293 Мбайт (20%)
Заголовок : Dub | DD 5.1 @ 384 kbps
Язык : Russian
Default : Да
Forced : Нет
Меню
00:00:00.000 : :00:00:00.000
00:07:42.587 : :00:07:42.587
00:16:46.172 : :00:16:46.172
00:24:08.947 : :00:24:08.947
00:33:19.998 : :00:33:19.998
00:42:11.112 : :00:42:11.112
00:51:07.439 : :00:51:07.439
00:59:55.717 : :00:59:55.717
01:08:09.627 : :01:08:09.627
01:18:35.961 : :01:18:35.961
01:26:59.089 : :01:26:59.089
01:35:50.453 : :01:35:50.453
Трейлер
Download / Скачать

Хотите скачать бесплатно? Зарегистрируйтесь на сайте (ссылка на регистрацию). Pirat.ca - самый быстрый торрент трекер в рунете!

Как скачивать  ·   Что такое торрент  ·   Рейтинг и ограничения

Амангельды

37919

Пост 03-Янв-2018 08:23 (спустя 1 день 16 часов)

[Q] 

Посмотрел обе части за раз...
Отличная дилогия, надо сказать.
Карате или кунг-фу с пришельцами снято на отлично (хоть я и не любитель единоборств)
Бояна Новакович - слов нет, одни крики и вой на поляне ночью и днем.
Настоящая красота...
Мне понравилось Всем качать!!!

_________________

Товарищ, верь, пройдет она,
Так называемая гласность.
И вот тогда госбезопасность
Припомнит ваши имена
Раздачи от Амангельды - ТЫНЦ
[Профиль]  [ЛС] 

klaus38

Штурман

Пост 03-Янв-2018 21:49 (спустя 13 часов)

[Q] 

Картина прет за счет мощной динамики и слабоумия, сметая с пути все намеки на вменяемость.
[Профиль]  [ЛС] 

Mollchun

Корсар

2070

Пост 28-Янв-2018 08:54 (спустя 24 дня)

[Q] 

Фильм хороший. Вменяемая космическая месиловка с пришельцами.
Всем качать!!!
[Профиль]  [ЛС] 

Полтос

Гроза морей

Пост 28-Янв-2018 16:36 (спустя 7 часов)

[Q] 

ТВ-3 рулит!)
На любителя

_________________
Первый закон Прапорщика: Всё что поднимаемо - относительно!)
[Профиль]  [ЛС] 

the_lame

Флибустьер

Пост 31-Янв-2018 19:43 (спустя 3 дня)

[Q] 

Смысла в этом, так сказать, кине, ни на грош.
[Профиль]  [ЛС] 

Пост 09-Фев-2018 16:52 (спустя 8 дней)

Топик был перенесен из форума Новинки (HD|DVD|BD| TV|SAT|PDTV| - Rips) в форум Фильмы 2010 - 2017 г.г.
aleksey99
 
Показать сообщения:    
Ответить на тему

Текущее время: Сегодня 04:35

Часовой пояс: GMT + 4



Вы не можете начинать темы
Вы не можете отвечать на сообщения
Вы не можете редактировать свои сообщения
Вы не можете удалять свои сообщения
Вы не можете голосовать в опросах
Вы не можете прикреплять файлы к сообщениям
Вы не можете скачивать файлы

Майнать ▼