Уважаемый Гость!
Вы можете поддержать проект и зарегистрироваться у наших партнеров - онлайн-стратегия MyLands. При регистрации в игре Вы получите код, который сможете активировать после регистрации на pirat.ca и получить 1000 дублонов.

Ваш код:
d62c2061c455718593c6a114ac2516fc9ed57c9f
 
     

Бегущий по лезвию 2049 / Blade Runner 2049 (Дени Вильнёв / Denis Villeneuve) [2017 г., фантастика, триллер, драма, детектив, WEB-DLRip] Dub [iTunes]

Ответить на тему
 
Автор
Сообщение

Пост 02-Янв-2018 08:39

[Q] 

aleksey99

--Бегущий по лезвию 2049 / Blade Runner 2049-- Производство: США, Великобритания, Венгрия, Канада / 16:14 Entertainment, Alcon Entertainment, Columbia Pictures
Год выпуска: 2017 г.
Жанр: фантастика, триллер, драма, детектив
Продолжительность: 02:43:26--Мировая премьера: 3 октября 2017
Российская премьера: 5 октября 2017, «WDSSPR»
Цифровой релиз: 02 января 2018, «Sony Pictures Home Entertainment»--Перевод: Профессиональный (полное дублирование) [iTunes]--Режиссер: Дени Вильнёв / Denis Villeneuve--В ролях: Райан Гослинг, Харрисон Форд, Джаред Лето, Ана де Армас, Сильвия Хукс, Робин Райт, Маккензи Дэвис, Карла Юри, Ленни Джеймс, Дэйв Батиста--Описание: В недалеком будущем мир населен людьми и репликантами, созданными выполнять самую тяжелую работу. Работа офицера полиции Кей — держать репликантов под контролем в условиях нарастающего напряжения… Пока он случайно не становится обладателем секретной информации, которая ставит под угрозу существование всего человечества. Желая найти ключ к разгадке, Кей решает разыскать Рика Декарда, бывшего офицера специального подразделения полиции Лос-Анджелеса, который бесследно исчез много лет назад.-- --Качество видео: WEB-DLRip
Контейнер: AVI
Видео кодек: XviD
Аудио кодек: AC3
Видео: 720x304 (2.37:1), 23.976 fps, XviD build 73 ~1520 kbps avg, 0.29 bit/pixel
Аудио: 48 kHz, AC3 Dolby Digital, 3/2 (L,C,R,l,r) + LFE ch, ~384 kbps
Cубтитры: Русские [forced].
Общее
Полное имя : H:\Torrent2\Blade.Runner.2049.2017.WEB-DLRip.2.18Gb\Blade.Runner.2049.2017.WEB-DLRip.2.18Gb.avi
Формат : AVI
Формат/Информация : Audio Video Interleave
Профиль формата : OpenDML
Размер файла : 2,18 Гбайт
Продолжительность : 2 ч. 43 м.
Общий поток : 1912 Кбит/сек
Программа кодирования : VirtualDubMod 1.5.10.2 (build 2540/release)
Библиотека кодирования : VirtualDubMod build 2540/release
Видео
Идентификатор : 0
Формат : MPEG-4 Visual
Профиль формата : Advanced [email protected]
Параметр BVOP формата : 1
Параметр QPel формата : Нет
Параметр GMC формата : Без точки перехода
Параметр матрицы формата : Выборочная
Идентификатор кодека : XVID
Идентификатор кодека/Подсказка : XviD
Продолжительность : 2 ч. 43 м.
Битрейт : 1516 Кбит/сек
Ширина : 720 пикселей
Высота : 304 пикселя
Соотношение сторон : 2,35:1
Частота кадров : 23,976 (24000/1001) кадра/сек
Цветовое пространство : YUV
Субдискретизация насыщенности : 4:2:0
Битовая глубина : 8 бит
Тип развёртки : Прогрессивная
Метод сжатия : С потерями
Бит/(Пиксели*Кадры) : 0.289
Размер потока : 1,73 Гбайт (79%)
Библиотека кодирования : XviD 73
Аудио
Идентификатор : 1
Формат : AC-3
Формат/Информация : Audio Coding 3
Расширение режима : CM (complete main)
Параметр Endianness формата : Big
Идентификатор кодека : 2000
Продолжительность : 2 ч. 43 м.
Вид битрейта : Постоянный
Битрейт : 384 Кбит/сек
Каналы : 6 каналов
Расположение каналов : Front: L C R, Side: L R, LFE
Частота : 48,0 КГц
Частота кадров : 31,250 кадров/сек (1536 spf)
Метод сжатия : С потерями
Размер потока : 449 Мбайт (20%)
Выравнивание : Разделение по промежуткам
Продолжительность промежутка : 42 мс. (1,00 видеокадр)
Время предзагрузки промежутка : 500 мс.
Общее
Полное имя : H:\Torrent2\Blade.Runner.2049.2017.WEB-DLRip.2.18Gb\Blade.Runner.2049.2017.WEB-DLRip.2.18Gb.srt
Формат : SubRip
Размер файла : 1018 байт
Текст
Формат : SubRip
Метод сжатия : Без потерь
Трейлер
Download / Скачать

Хотите скачать бесплатно? Зарегистрируйтесь на сайте (ссылка на регистрацию). Pirat.ca - самый быстрый торрент трекер в рунете!

Как скачивать  ·   Что такое торрент  ·   Рейтинг и ограничения

Кристина119

Гроза морей

Пост 02-Янв-2018 14:27 (спустя 5 часов)

[Q] 

Спасибо Лови бочку
[Профиль]  [ЛС] 

qwers1

Шкипер

Пост 03-Янв-2018 23:50 (спустя 1 день 9 часов)

[Q] 

Для любителей фантастики,для простого человека фильм тяжелый.
[Профиль]  [ЛС] 

fishman

Флибустьер

Пост 04-Янв-2018 01:50 (спустя 2 часа)

[Q] 

Спасибо!!! rum

_________________
|___|___|___|___|___|___|___|__|__
__|__|__|_Биться головой_|___|___|
|___|___|___|__сюда!!___|___|__|__
__|___|___|___|___|___|___|__|__
[Профиль]  [ЛС] 

fishman

Флибустьер

Пост 07-Янв-2018 21:57 (спустя 3 дня)

[Q] 

Задумка неплохая, но растянут очень сильно - скучновато, однако смотрибельно, но один раз и не более... На любителя

_________________
|___|___|___|___|___|___|___|__|__
__|__|__|_Биться головой_|___|___|
|___|___|___|__сюда!!___|___|__|__
__|___|___|___|___|___|___|__|__
[Профиль]  [ЛС] 

succube

Шкипер

Пост 08-Янв-2018 05:20 (спустя 7 часов)

[Q] 

А мне фильм понравился, по своей гнетущей атмосфере будущего в том числе, фильм значительно глубже чем кажется на первый взгляд, кому интересно поищите на ютубе ролики про то что за тест про связанных и отсылку к книге набокова
З.Ы. сорри за много букаф,фильм стоит посмотреть
[Профиль]  [ЛС] 

Gothaka

Штурман

Пост 08-Янв-2018 12:32 (спустя 7 часов)

[Q] 

Вашпе шикардос - картинка (почти каждый кадр можно пилить на обои), саундтрэк, атмосферность, игра актеров.
Да - сюжет простой, но простой по своему. Это как стихи японских поэтов. В простоте, как раз глубокий смысл и скрывается.
Буду пересматривать и не раз.
[Профиль]  [ЛС] 

Незнайка

Флибустьер

Пост 08-Янв-2018 12:44 (спустя 12 минут)

[Q] 

ну очень длинный фильм.
Автору спасибо Автору респект!!!
[Профиль]  [ЛС] 

a s d

Морской Волк

1

Пост 08-Янв-2018 14:39 (спустя 1 час 54 минуты)

[Q] 

Затягивает, редко сейчас такие найдешь!
Автору респект!!! Всем качать!!!
[Профиль]  [ЛС] 

Пост 09-Фев-2018 16:50 (спустя 1 месяц 1 день)

Топик был перенесен из форума Новинки (HD|DVD|BD| TV|SAT|PDTV| - Rips) в форум Фильмы 2010 - 2017 г.г.
aleksey99
 

MrHoperzzz

Лоцман

Пост Сегодня 20:10 (спустя 1 месяц 13 дней)

[Q] 

Спасибо!!! Автору респект!!! сейчас заценим)
[Профиль]  [ЛС] 
Показать сообщения:    
Ответить на тему

Текущее время: Сегодня 21:08

Часовой пояс: GMT + 4



Вы не можете начинать темы
Вы не можете отвечать на сообщения
Вы не можете редактировать свои сообщения
Вы не можете удалять свои сообщения
Вы не можете голосовать в опросах
Вы не можете прикреплять файлы к сообщениям
Вы не можете скачивать файлы

▼ Вниз