Бегущий по лезвию 2049 / Blade Runner 2049 (Дени Вильнёв / Denis Villeneuve) [2017 г., фантастика, триллер, драма, BDRip-AVC] Dub [Лицензия]+ Original (Eng) + Sub (Rus, Eng)

Ответить на тему
 
Автор
Сообщение

Пост 02-Янв-2018 14:25

[Q] 

aleksey99

--Бегущий по лезвию 2049 / Blade Runner 2049-- Производство: США, Великобритания, Венгрия, Канада / 16:14 Entertainment, Alcon Entertainment, Columbia Pictures
Год выпуска: 2017 г.
Жанр: фантастика, триллер, драма, детектив
Продолжительность: 02:43:28--Мировая премьера: 3 октября 2017
Российская премьера: 5 октября 2017, «WDSSPR»
Цифровой релиз: 02 января 2018, «Sony Pictures Home Entertainment»--Перевод: Профессиональный (полное дублирование) [Лицензия]
Оригинальный аудиопоток: английский--Режиссер: Дени Вильнёв / Denis Villeneuve--В ролях: Райан Гослинг, Харрисон Форд, Джаред Лето, Ана де Армас, Сильвия Хукс, Робин Райт, Маккензи Дэвис, Карла Юри, Ленни Джеймс, Дэйв Батиста--Описание: В недалеком будущем мир населен людьми и репликантами, созданными выполнять самую тяжелую работу. Работа офицера полиции Кей — держать репликантов под контролем в условиях нарастающего напряжения… Пока он случайно не становится обладателем секретной информации, которая ставит под угрозу существование всего человечества. Желая найти ключ к разгадке, Кей решает разыскать Рика Декарда, бывшего офицера специального подразделения полиции Лос-Анджелеса, который бесследно исчез много лет назад.-- --Качество видео: BDRip-AVC
Контейнер: MKV
Видео кодек: AVC/H.264
Аудио кодек: AC3
Видео: x264, 1032x430 (2.40:1) 23,976 fps, ~1230 kbps, 0.116 bit/pixel
Аудио 1: 48 kHz, AC3 Dolby Digital, 3/2 (L,C,R,l,r) + LFE ch, ~448 kbps RUS
Аудио 2: 48 kHz, AC3 Dolby Digital, 2/0 (L,R) ch, ~192 kbps ENG
Cубтитры: Русские (форсированные + полные), Английские (полные).
Общее
Уникальный идентификатор : 240259958613925749609023451973703523348 (0xB4C062870C782DF7B78B73EF75E55C14)
Полное имя : H:\Torrent2\Blade.Runner.2049.(2017).BDRip.x264.AFM.mkv
Формат : Matroska
Версия формата : Version 4 / Version 2
Размер файла : 2,18 Гбайт
Продолжительность : 2 ч. 43 м.
Общий поток : 1908 Кбит/сек
Название фильма : Бегущий по лезвию 2049 / Blade Runner 2049 (2017) :: AFM ::
Дата кодирования : UTC 2018-01-05 13:57:29
Программа кодирования : mkvmerge v8.3.0 ('Over the Horizon') 32bit
Библиотека кодирования : libebml v1.3.1 + libmatroska v1.4.2
Обложка : Yes
Attachments : cover.jpg
Видео
Идентификатор : 1
Формат : AVC
Формат/Информация : Advanced Video Codec
Профиль формата : [email protected]
Параметр CABAC формата : Да
Параметр ReFrames формата : 12 кадров
Идентификатор кодека : V_MPEG4/ISO/AVC
Продолжительность : 2 ч. 43 м.
Битрейт : 1230 Кбит/сек
Ширина : 1032 пикселя
Высота : 430 пикселей
Соотношение сторон : 2,40:1
Режим частоты кадров : Постоянный
Частота кадров : 23,976 (24000/1001) кадра/сек
Цветовое пространство : YUV
Субдискретизация насыщенности : 4:2:0
Битовая глубина : 8 бит
Тип развёртки : Прогрессивная
Бит/(Пиксели*Кадры) : 0.116
Размер потока : 1,40 Гбайт (64%)
Заголовок : BDRip by AFM
Библиотека кодирования : x264 core 152 r2851+45 9658d1a 7mod [[email protected] X86_64]
Настройки программы : cabac=1 / ref=12 / deblock=1:-2:-1 / analyse=0x3:0x133 / me=umh / subme=10 / psy=1 / fade_compensate=0.00 / psy_rd=1.00:0.00 / mixed_ref=1 / me_range=32 / chroma_me=0 / trellis=2 / 8x8dct=1 / cqm=0 / deadzone=21,11 / fast_pskip=0 / chroma_qp_offset=-2 / threads=6 / lookahead_threads=1 / sliced_threads=0 / nr=0 / decimate=1 / interlaced=0 / bluray_compat=0 / constrained_intra=0 / fgo=0 / bframes=14 / b_pyramid=2 / b_adapt=2 / b_bias=0 / direct=1 / weightb=1 / open_gop=0 / weightp=2 / keyint=240 / keyint_min=23 / scenecut=40 / intra_refresh=0 / rc_lookahead=90 / rc=crf / mbtree=0 / crf=18.9000 / qcomp=0.70 / qpmin=0:0:0 / qpmax=69:69:69 / qpstep=4 / vbv_maxrate=50000 / vbv_bufsize=62500 / crf_max=0.0 / nal_hrd=none / filler=0 / ip_ratio=1.35 / pb_ratio=1.25 / aq=3:0.90 / aq-sensitivity=10.00 / aq-factor=1.00:1.00:1.00 / aq2=0 / aq3=2:[0.50:0.50]:[0.50:0.50]:[0.50:0.50]:[0.50:0.50] / aq3-sensitivity=10.00 / aq3-factor=[1.00:1.00]:[1.00:1.00]:[1.00:1.00] / aq3-boundary=192:64:24 / zones=222900,235151,q=30
Язык : English
Default : Да
Forced : Нет
Аудио #1
Идентификатор : 2
Формат : AC-3
Формат/Информация : Audio Coding 3
Расширение режима : CM (complete main)
Параметр Endianness формата : Big
Идентификатор кодека : A_AC3
Продолжительность : 2 ч. 43 м.
Вид битрейта : Постоянный
Битрейт : 448 Кбит/сек
Каналы : 6 каналов
Расположение каналов : Front: L C R, Side: L R, LFE
Частота : 48,0 КГц
Частота кадров : 31,250 кадров/сек (1536 spf)
Метод сжатия : С потерями
Размер потока : 524 Мбайт (23%)
Заголовок : Dub, AC3 5.1 ~448 kbps
Язык : Russian
Default : Да
Forced : Нет
Аудио #2
Идентификатор : 3
Формат : AC-3
Формат/Информация : Audio Coding 3
Расширение режима : CM (complete main)
Параметр Endianness формата : Big
Идентификатор кодека : A_AC3
Продолжительность : 2 ч. 43 м.
Вид битрейта : Постоянный
Битрейт : 192 Кбит/сек
Каналы : 2 канала
Расположение каналов : Front: L R
Частота : 48,0 КГц
Частота кадров : 31,250 кадров/сек (1536 spf)
Метод сжатия : С потерями
Размер потока : 224 Мбайт (10%)
Заголовок : Original, AC3 2.0 ~192 kbps
Язык : English
Default : Нет
Forced : Нет
Текст #1
Идентификатор : 4
Формат : UTF-8
Идентификатор кодека : S_TEXT/UTF8
Идентификатор кодека/Информация : UTF-8 Plain Text
Заголовок : forced
Язык : Russian
Default : Да
Forced : Нет
Текст #2
Идентификатор : 5
Формат : UTF-8
Идентификатор кодека : S_TEXT/UTF8
Идентификатор кодека/Информация : UTF-8 Plain Text
Язык : Russian
Default : Нет
Forced : Нет
Текст #3
Идентификатор : 6
Формат : UTF-8
Идентификатор кодека : S_TEXT/UTF8
Идентификатор кодека/Информация : UTF-8 Plain Text
Язык : English
Default : Нет
Forced : Нет
Меню
00:00:00.000 : en:Chapter 1
00:12:36.172 : en:Chapter 2
00:23:29.282 : en:Chapter 3
00:37:00.885 : en:Chapter 4
00:42:50.317 : en:Chapter 5
00:49:24.503 : en:Chapter 6
00:58:35.553 : en:Chapter 7
01:04:10.680 : en:Chapter 8
01:15:47.292 : en:Chapter 9
01:25:12.482 : en:Chapter 10
01:36:15.060 : en:Chapter 11
01:50:55.106 : en:Chapter 12
02:01:36.872 : en:Chapter 13
02:08:40.379 : en:Chapter 14
02:16:42.485 : en:Chapter 15
02:27:46.732 : en:Chapter 16
Трейлер
Download / Скачать

Хотите скачать бесплатно? Зарегистрируйтесь на сайте (ссылка на регистрацию). Pirat.ca - самый быстрый торрент трекер в рунете!

Как скачивать  ·   Что такое торрент  ·   Рейтинг и ограничения



Последний раз редактировалось: aleksey99 (2018-01-05 19:29), всего редактировалось 1 раз

Bankir_2010

Лоцман

Пост 04-Янв-2018 19:29 (спустя 2 дня 5 часов)

[Q] 

Фильмец так себе, на любителя
[Профиль]  [ЛС] 

aleksey99 ®

306419

Пост 05-Янв-2018 19:31 (спустя 1 день)

[Q] 

Замена на BDRip-AVC [Лицензия]. Локализованный видеоряд.

_________________

[Профиль]  [ЛС] 

daemons89

Штурман

Пост 05-Янв-2018 20:55 (спустя 1 час 23 минуты)

[Q] 

Кто-нибудь смотрел? Время на просмотр тратить?
[Профиль]  [ЛС] 

rsel

Морской Волк

Пост 06-Янв-2018 21:47 (спустя 1 день)

[Q] 

Очень долго ждал и караулил появление этого фильма на пиратке, и вот, он появился...
Если коротко, то лучше б не ждал это унылое г...о! Фильм серый, скучный, растянутый и какой то тупой. Короче полный трэш. Во время просмотра было порывов 10 его выключить и удалить нафиг. Но это мое мнение конечно, уверен, что найдутся и фанаты, ведь для кого то же снимают унылое г...но )
[Профиль]  [ЛС] 

msss

Корсар

Пост 06-Янв-2018 21:58 (спустя 10 минут)

[Q] 

Впринципе согласен с предыдущим комментарием, но всё же чуть лучше чем унылое говно, т.к. есть полноценный сюжет хоть и с дырами но и задуматься заставляет, так что твёрдая троечка)))
[Профиль]  [ЛС] 

janivar

Лоцман

Пост 07-Янв-2018 02:12 (спустя 4 часа)

[Q] 

Честно говоря большего ожидал((((.... Хотя изначально он у меня ассоциировался с "Бегущим человеком" Шварца...хз почему))) Зря потраченные 2, 5 часа времени...
[Профиль]  [ЛС] 

Пост 09-Фев-2018 16:50 (спустя 1 месяц 2 дня)

Топик был перенесен из форума Новинки (HD|DVD|BD| TV|SAT|PDTV| - Rips) в форум Фильмы 2010 - 2017 г.г.
aleksey99
 

Naylo

Корсар

Пост 25-Фев-2018 23:34 (спустя 1 месяц 18 дней)

[Q] 

кто любит акшон идите мимо, кому невлом подумать прям в кассу!

_________________
[Профиль]  [ЛС] 

exelero07

Флибустьер

Пост 07-Мар-2018 00:50 (спустя 9 дней)

[Q] 

Сюжет, визуал на высоте.
[Профиль]  [ЛС] 

Ливень

Корсар

Пост 19-Мар-2018 23:44 (спустя 12 дней)

[Q] 

Да ну на фиг, ждал большего, и по сюжету и по спецэффектам
[Профиль]  [ЛС] 

Hkg84

Корсар

Пост 31-Мар-2018 10:50 (спустя 11 дней)

[Q] 

Очередная америкосовская какашка.
[Профиль]  [ЛС] 
Показать сообщения:    
Ответить на тему

Текущее время: Сегодня 03:21

Часовой пояс: GMT + 4



Вы не можете начинать темы
Вы не можете отвечать на сообщения
Вы не можете редактировать свои сообщения
Вы не можете удалять свои сообщения
Вы не можете голосовать в опросах
Вы не можете прикреплять файлы к сообщениям
Вы не можете скачивать файлы

Майнать ▼