Уважаемый Гость!
Вы можете поддержать проект и зарегистрироваться у наших партнеров - онлайн-стратегия MyLands. При регистрации в игре Вы получите код, который сможете активировать после регистрации на pirat.ca и получить 1000 дублонов.

Ваш код:
fa815ad710998ea99950c036b358aa9afedd6817
 
     

Взвешенные люди / Сезон: 2 / Серии: 1-16из16 (Алексей Репников\aleksey repnikov) [2016 г., ТВ-Шоу, SATRip]

Ответить на тему
 
Автор
Сообщение

Пост 02-Янв-2018 17:34

[Q] 

dimas1000

Корсар

-Взвешенные люди-- Производство: Россия, Телеканал СТС, «ВайТ Медиа»
Жанр: ТВ-Шоу
Год выпуска: 2016 г.
Продолжительность: 01:35:30
Перевод: Оригинал
Режиссёр: Алексей Репников\aleksey repnikov-В ролях: Юлия Ковальчук, Ирина Турчинская, Денис Семенихин, Юлия Бастригина, Ирина Леонова, Андрей Кухаренко-Описание: Мировое реалити-шоу «The Biggest Loser», которое снимается в 25 и с успехом идет в более чем 90 странах мира, — теперь и в России! СТС начинает гонку на похудение — шоу «Взвешенные люди» с Юлией Ковальчук в роли ведущей! 18 участников, общий вес которых превышает несколько тонн, поделят на две команды. Теперь они — взвешенные люди, и их судьба в прямом смысле находится на весах! Скучные диеты и нудные упражнения в прошлом, опытные диетологи и фитнес-тренеры проекта придумали для участников настоящие испытания силы и воли. Игроки будут тянуть на скорость грузовики, ловить поросят, строить пирамиды из сахара и танцевать самбу. Их будут соблазнять десертами и полной свободой действий. Каждую неделю команда, сбросившая меньше веса, выбирает игрока на вылет. В финале останутся только двое, а победителя ждет не только стройная фигура, отличное самочувствие и настроение, но и денежный приз!-Качество видео: SATRip
Контейнер: AVI
Видео кодек: XviD
Аудио кодек: MP3
Видео: MPEG-4 XviD, (720x400),1800 Кбит/с, 25.000 кадра/сек
Аудио: MP3, 2 ch, 128 kbps (Rus) 48.0 KHz Оригинал
Cубтитры: отсутствуют
Формат файла: .avi (AVI)
Размер файла: 1,27 GB (1 363 490 816 bytes)
Длительность: 1h 33mn
Навигация по главам: Нет
Битрейт (все потоки): 1 939 Kbps
Создан при помощи: VirtualDubMod 1.5.10.3 | www.virtualdub-fr.org || (build 2550/release)
Использовалась библиотека: VirtualDubMod build 2550/release
Обложка: Отсутствует
:
Название: 01.Vipusk.SATRip
:
Тип потока: Видео
Длительность: 01:33:46
Кодек: MPEG-4 Visual
Кодек/профиль: Advanced [email protected]
Кодек/ID: XVID
Размеры изображения: 720 x 400 (16:9)
Частота кадров: 25.000 fps
Размер потока: 1.18 GiB (93%)
Битрейт: 1 801 Kbps
Метод сжатия: Lossy
Библиотека кодирования: XviD 1.2.1 (UTC 2008-12-04)
Цветовое пространство: YUV
Тип развёртки: Progressive
Колориметрия: 4:2:0
Глубина: 8 bits
:
Тип потока: Звук #1
Длительность: 01:33:46.368
Кодек: MPEG Audio
Кодек/профиль: Layer 3
Кодек/ID: 55
Частота дискретизации: 48.0 KHz
Каналов: 2 channels
Битрейт: 128 Kbps
Битрейт/тип: Constant
Размер потока: 85.9 MiB (7%)
Метод сжатия: Lossy
Download / Скачать

Хотите скачать бесплатно? Зарегистрируйтесь на сайте (ссылка на регистрацию). Pirat.ca - самый быстрый торрент трекер в рунете!

Как скачивать  ·   Что такое торрент  ·   Рейтинг и ограничения

Показать сообщения:    
Ответить на тему

Текущее время: Сегодня 15:15

Часовой пояс: GMT + 4



Вы не можете начинать темы
Вы не можете отвечать на сообщения
Вы не можете редактировать свои сообщения
Вы не можете удалять свои сообщения
Вы не можете голосовать в опросах
Вы не можете прикреплять файлы к сообщениям
Вы не можете скачивать файлы

▼ Вниз