Атлантида / Cold Skin (Ксавье Жанс / Xavier Gens) [2017 г., ужасы, фантастика, триллер, приключения, WEB-DLRip] Dub [iTunes]

Ответить на тему
 
Автор
Сообщение

Пост 03-Янв-2018 08:28

[Q] 

aleksey99

--Атлантида / Cold Skin--«Открой тайну затерянной цивилизации»-- Производство: Испания, Франция / Ink Connection
Год выпуска: 2017 г.
Жанр: ужасы, фантастика, триллер, приключения
Продолжительность: 01:42:06--Мировая премьера: 10 сентября 2017
Российская премьера: 30 ноября 2017, «Экспонента»
Цифровой релиз: 28 декабря 2017, «Экспонента»--Перевод: Профессиональный (полное дублирование) [iTunes]--Режиссер: Ксавье Жанс / Xavier Gens--В ролях: Рэй Стивенсон, Дэвид Оукс, Аура Гарридо, Джон Бенфилд, Бен Темпле, Иван Гонсалес--Описание: После длительного плавания молодой метеоролог Френд прибывает на затерянный в океане остров принять годичную вахту на метеостанции. На острове оказывается лишь суровый и немногословный смотритель маяка Грюнер. Френд довольно быстро понимает, что Грюнер что-то скрывает, старый метеоролог попал в какую-то передрягу, а остров кажется необитаемым только на первый взгляд.-- --Качество видео: WEB-DLRip
Контейнер: AVI
Видео кодек: XviD
Аудио кодек: AC3
Видео: 720x304 (2.37:1), 25 fps, XviD build 73 ~1653 kbps avg, 0.30 bit/pixel
Аудио: 48 kHz, AC3 Dolby Digital, 3/2 (L,C,R,l,r) + LFE ch, ~384 kbps
Cубтитры: отсутствуют.
Общее
Полное имя : H:\Torrent2\Cold.Skin.2017.WEB-DLRip.1.46Gb.avi
Формат : AVI
Формат/Информация : Audio Video Interleave
Размер файла : 1,46 Гбайт
Продолжительность : 1 ч. 42 м.
Общий поток : 2047 Кбит/сек
Программа кодирования : VirtualDubMod 1.5.10.2 (build 2540/release)
Библиотека кодирования : VirtualDubMod build 2540/release
Видео
Идентификатор : 0
Формат : MPEG-4 Visual
Профиль формата : Advanced [email protected]
Параметр BVOP формата : 1
Параметр QPel формата : Нет
Параметр GMC формата : Без точки перехода
Параметр матрицы формата : Выборочная
Идентификатор кодека : XVID
Идентификатор кодека/Подсказка : XviD
Продолжительность : 1 ч. 42 м.
Битрейт : 1654 Кбит/сек
Ширина : 720 пикселей
Высота : 304 пикселя
Соотношение сторон : 2,35:1
Частота кадров : 25,000 кадров/сек
Цветовое пространство : YUV
Субдискретизация насыщенности : 4:2:0
Битовая глубина : 8 бит
Тип развёртки : Прогрессивная
Метод сжатия : С потерями
Бит/(Пиксели*Кадры) : 0.302
Размер потока : 1,18 Гбайт (81%)
Библиотека кодирования : XviD 73
Аудио
Идентификатор : 1
Формат : AC-3
Формат/Информация : Audio Coding 3
Расширение режима : CM (complete main)
Параметр Endianness формата : Big
Идентификатор кодека : 2000
Продолжительность : 1 ч. 42 м.
Вид битрейта : Постоянный
Битрейт : 384 Кбит/сек
Каналы : 6 каналов
Расположение каналов : Front: L C R, Side: L R, LFE
Частота : 48,0 КГц
Частота кадров : 31,250 кадров/сек (1536 spf)
Метод сжатия : С потерями
Размер потока : 280 Мбайт (19%)
Выравнивание : Разделение по промежуткам
Продолжительность промежутка : 40 мс. (1,00 видеокадр)
Время предзагрузки промежутка : 500 мс.
Трейлер
Download / Скачать

Хотите скачать бесплатно? Зарегистрируйтесь на сайте (ссылка на регистрацию). Pirat.ca - самый быстрый торрент трекер в рунете!

Как скачивать  ·   Что такое торрент  ·   Рейтинг и ограничения

alex11959

Гроза морей

Пост 03-Янв-2018 12:46 (спустя 4 часа)

[Q] 

Спасибо!!! !!!!!!!!!!!!!!!
[Профиль]  [ЛС] 

D_Ex

Корсар

103

Пост 03-Янв-2018 14:18 (спустя 1 час 31 минута)

[Q] 

720x304 ? Почему так хило? Многие свои телевизоры кинескопные уже выкинули. Как-то не комильфо с таким разрешением смотреть.
[Профиль]  [ЛС] 

Мерзавец

Морской Волк

Пост 03-Янв-2018 16:16 (спустя 1 час 58 минут)

[Q] 

этта, лучшее кино.....рекомендую смотреть, весь день!
Добавлено спустя 1 минута 37 секунд:
надо купить билеты, на целый день, в кинотеатр....всей семьёй, ломанёмся!
[Профиль]  [ЛС] 

Gothaka

Штурман

Пост 13-Янв-2018 13:55 (спустя 9 дней)

[Q] 

Норм. Лавкрафт бы одобрил.
Только лучше без детей смотреть. А то лишние вопросы будут задавать.
[Профиль]  [ЛС] 

south-travels

Шкипер

Пост 13-Янв-2018 18:42 (спустя 4 часа)

[Q] 

Шляпа полнейшая.
[Профиль]  [ЛС] 

wuzap00x

Матрос

Пост 14-Янв-2018 19:21 (спустя 1 день)

[Q] 

Так себе фильм...
[Профиль]  [ЛС] 

AirPower

Корсар

Пост 16-Янв-2018 01:37 (спустя 1 день 6 часов)

[Q] 

Поначалу ничего, а потом такое чувство, что они не знали, как фильм закончить.
На любителя
[Профиль]  [ЛС] 

ketzer

Корсар

Пост 17-Янв-2018 07:43 (спустя 1 день 6 часов)

[Q] 

Ни о чём, в прямом смысле. Очень заезженная тема
считали туземцев животными и убивали, а они оказались умными и к ним надо с душой
зрителю это очевидно с самого начала, поэтому ожидается хотя бы какой-то интересный поворот по ходу действия, но ничего оригинального не происходит, персонажи тупы как пробки.
[Профиль]  [ЛС] 

Полтос

Гроза морей

Пост 19-Янв-2018 00:13 (спустя 1 день 16 часов)

[Q] 

Почему кино назвали "Атлантидой", а не "Холодной кожей" (с рыбьей рожей), как в оригинале может быть только одно объяснение - опять дюже жадные маркетологи решили по-быстрому бабла срубить на посредственном кине и броском названии, не имеющим никакого отношения к содержанию. Достойное пополнение коллекции ТВ3.
На любителя

_________________
Первый закон Прапорщика: Всё что поднимаемо - относительно!)
[Профиль]  [ЛС] 

Пост 09-Фев-2018 16:50 (спустя 21 день)

Топик был перенесен из форума Новинки (HD|DVD|BD| TV|SAT|PDTV| - Rips) в форум Фильмы 2010 - 2017 г.г.
aleksey99
 
Показать сообщения:    
Ответить на тему

Текущее время: Сегодня 04:27

Часовой пояс: GMT + 4



Вы не можете начинать темы
Вы не можете отвечать на сообщения
Вы не можете редактировать свои сообщения
Вы не можете удалять свои сообщения
Вы не можете голосовать в опросах
Вы не можете прикреплять файлы к сообщениям
Вы не можете скачивать файлы

Майнать ▼