Уважаемый Гость!
Вы можете поддержать проект и зарегистрироваться у наших партнеров - онлайн-стратегия MyLands. При регистрации в игре Вы получите код, который сможете активировать после регистрации на pirat.ca и получить 1000 дублонов.

Ваш код:
d62c2061c455718593c6a114ac2516fc9ed57c9f
 
     

Лига справедливости / Justice League (Зак Снайдер / Zack Snyder) [2017 г., фантастика, фэнтези, боевик, приключения, HDTVRip] Dub [Чистый звук] + Sub (Kor)

Ответить на тему
 
Автор
Сообщение

Пост 04-Янв-2018 21:57

[Q] 

aleksey99

--Лига справедливости / Justice League--«Нельзя спасти мир в одиночку»-- Производство: США / Atlas Entertainment, Cruel & Unusual Films, DC Comics, DC Entertainment, Dune Entertainment, Lensbern Productions, Warner Bros.
Год выпуска: 2017 г.
Жанр: фантастика, фэнтези, боевик, приключения
Продолжительность: 01:57:20--Мировая премьера: 13 ноября 2017
Российская премьера: 16 ноября 2017, «Каро-Премьер»--Перевод: Профессиональный (полное дублирование) [Чистый звук]--Режиссер: Зак Снайдер / Zack Snyder--В ролях: Галь Гадот, Робин Райт, Джейсон Момоа, Конни Нильсен, Эми Адамс, Бен Аффлек, Эзра Миллер, Эмбер Хёрд, Генри Кавилл, Дайан Лэйн--Описание: Брюс Уэйн, вдохновленный самопожертвованием Супермена, вновь обретает веру в человечество. Он заручается поддержкой новой союзницы, Дианы Принс, чтобы сразиться с еще более могущественным противником. Бэтмен и Чудо-Женщина быстро набирают команду сверхлюдей для борьбы с пробудившейся угрозой. Но несмотря на уникальный состав отряда супергероев — Бэтмен, Чудо-Женщина, Аквамэн, Киборг и Флэш, — быть может, спасать планету от вторжения катастрофических масштабов уже слишком поздно.-- --Качество видео: HDTVRip
Контейнер: AVI
Видео кодек: XviD
Аудио кодек: AC3
Видео: 720x400 (1.80:1), 23.976 fps, XviD build 50 ~1473 kbps avg, 0.21 bit/pixel
Аудио: 48 kHz, AC3 Dolby Digital, 2/0 (L,R) ch, ~192 kbps
Cубтитры: Корейские (хардсаб).
Общее
Полное имя : H:\Torrent2\Justice.League.2017.D.HDTVRip.14OOMB.avi
Формат : AVI
Формат/Информация : Audio Video Interleave
Размер файла : 1,37 Гбайт
Продолжительность : 1 ч. 57 м.
Общий поток : 1674 Кбит/сек
Программа кодирования : VirtualDubMod 1.5.10.2 (build 2540/release)
Библиотека кодирования : VirtualDubMod build 2540/release
Видео
Идентификатор : 0
Формат : MPEG-4 Visual
Профиль формата : Advanced [email protected]
Параметр BVOP формата : 2
Параметр QPel формата : Нет
Параметр GMC формата : Без точки перехода
Параметр матрицы формата : Default (MPEG)
Идентификатор кодека : XVID
Идентификатор кодека/Подсказка : XviD
Продолжительность : 1 ч. 57 м.
Битрейт : 1473 Кбит/сек
Ширина : 720 пикселей
Высота : 400 пикселей
Соотношение сторон : 16:9
Частота кадров : 23,976 (24000/1001) кадра/сек
Цветовое пространство : YUV
Субдискретизация насыщенности : 4:2:0
Битовая глубина : 8 бит
Тип развёртки : Прогрессивная
Метод сжатия : С потерями
Бит/(Пиксели*Кадры) : 0.213
Размер потока : 1,21 Гбайт (88%)
Библиотека кодирования : XviD 1.2.1 (UTC 2008-12-04)
Аудио
Идентификатор : 1
Формат : AC-3
Формат/Информация : Audio Coding 3
Расширение режима : CM (complete main)
Параметр Endianness формата : Big
Идентификатор кодека : 2000
Продолжительность : 1 ч. 57 м.
Вид битрейта : Постоянный
Битрейт : 192 Кбит/сек
Каналы : 2 канала
Расположение каналов : Front: L R
Частота : 48,0 КГц
Частота кадров : 31,250 кадров/сек (1536 spf)
Метод сжатия : С потерями
Размер потока : 161 Мбайт (11%)
Выравнивание : Разделение по промежуткам
Продолжительность промежутка : 42 мс. (1,00 видеокадр)
Время предзагрузки промежутка : 500 мс.
Трейлер
Download / Скачать

Хотите скачать бесплатно? Зарегистрируйтесь на сайте (ссылка на регистрацию). Pirat.ca - самый быстрый торрент трекер в рунете!

Как скачивать  ·   Что такое торрент  ·   Рейтинг и ограничения

jofrei53

Флибустьер

Пост 04-Янв-2018 23:14 (спустя 1 час 16 минут)

[Q] 

Спасибо! Порадовал... Автору респект!!! Лови бочку
[Профиль]  [ЛС] 

Ya Fratkin

Корсар

Пост 04-Янв-2018 23:47 (спустя 33 минуты)

[Q] 

Спасибо!Будем посмотреть. Лови бочку
[Профиль]  [ЛС] 

Кристина119

Гроза морей

Пост 05-Янв-2018 00:12 (спустя 25 минут)

[Q] 

Спасибо большое Лови бочку
[Профиль]  [ЛС] 

daemons89

Штурман

Пост 05-Янв-2018 13:03 (спустя 12 часов)

[Q] 

Спасибо, заценим Автору респект!!!
[Профиль]  [ЛС] 

левка

Корсар

Пост 05-Янв-2018 19:49 (спустя 6 часов)

[Q] 

как фильм то ребята??? Лови бочку автору!!!
[Профиль]  [ЛС] 

andreiex

Морской Волк

Пост 07-Янв-2018 14:56 (спустя 1 день 19 часов)

[Q] 

Эх, помнится, фильмы на компе я смотрел потому, что в них не было долбаной рекламы, как в телевизоре... Куды котицца мир...
Тем не менее, Лови бочку , ТС !
Каким бы фильм ни был, второй раз пересматривать я его все равно не буду, так что скачаю лучше сейчас и подпивко.
ЗЫ Смотрю минут десять и есть некоторые замечания:
- такое ощущение, что озвучка отстает на полсекунды. Смотреть не очень мешает, но сначала видишь действие, а звук появляется с некоторым запозданием.
- как-то фризит картинка. вроде нормальный комп, видюху после НГ поставил нвидию 1060, но будто вместо 24 кадров в секунду их штук 20.
[Профиль]  [ЛС] 

Mitay

388

Пост 07-Янв-2018 21:53 (спустя 6 часов)

[Q] 

Фильм супер, все как всегда в стиле железного человека, бэтмена и паука, ну и с отличным юмором местами :) правда данный релиз с рекламой, но тут она хоть не так мешает и не выплывает в диалогах героев ...
[Профиль]  [ЛС] 

a s d

Морской Волк

1

Пост 08-Янв-2018 23:23 (спустя 1 день 1 час)

[Q] 

Спасибо!!! ..... Автору респект!!!
[Профиль]  [ЛС] 

Пост 09-Фев-2018 16:50 (спустя 1 месяц)

Топик был перенесен из форума Новинки (HD|DVD|BD| TV|SAT|PDTV| - Rips) в форум Фильмы 2010 - 2017 г.г.
aleksey99
 

aleksey99 ®

304240

Пост 14-Фев-2018 08:22 (спустя 1 месяц 5 дней)

[Q] 

Лига справедливости / Justice League (Зак Снайдер / Zack Snyder) [2017 г., фантастика, фэнтези, боевик, приключения, WEB-DLRip] Dub [iTunes] + Sub (Rus)

_________________

[Профиль]  [ЛС] 
Показать сообщения:    
Ответить на тему

Текущее время: Сегодня 20:59

Часовой пояс: GMT + 4



Вы не можете начинать темы
Вы не можете отвечать на сообщения
Вы не можете редактировать свои сообщения
Вы не можете удалять свои сообщения
Вы не можете голосовать в опросах
Вы не можете прикреплять файлы к сообщениям
Вы не можете скачивать файлы

▼ Вниз