Девушка с косой (Ольга Попова) [2017 г., комедия, WEB-DLRip] Original (RUS)][iTunes Russia]

Ответить на тему
 
Автор
Сообщение

Пост 05-Янв-2018 07:20

[Q] 

aleksey99

--Девушка с косой--«Совсем не черная комедия»-- Производство: Россия
Год выпуска: 2017 г.
Жанр: комедия
Продолжительность: 01:26:09--Российская премьера: 14 декабря 2017, «Парадиз»--Режиссер: Ольга Попова--В ролях: Александра Урсуляк, Виктор Добронравов, Федор Добронравов, Ирина Чериченко, Марк Богатырев, Олег Гаас, Полина Ауг, Нина Дворжецкая, Дарья Мингазетдинова, Полина Стремоусова--Описание: Успеют ли жители дома N48 по улице Заморенова, судьба которых переплетается 31 декабря, сделать праздник идеальным и не сыграть в ящик? И за кем по красивой новогодней Москве идет одинокая Девушка с косой?-- --Качество видео: WEB-DLRip
Контейнер: AVI
Видео кодек: XviD
Аудио кодек: AC3
Видео: 704x400 (1.76:1), 25 fps, XviD build 73 ~2033 kbps avg, 0.29 bit/pixel
Аудио: 48 kHz, AC3 Dolby Digital, 3/2 (L,C,R,l,r) + LFE ch, ~384 kbps
Cубтитры: отсутствуют
Общее
Полное имя : H:\Torrent2\Devushka.s.kosoj.2017.WEB-DLRip.1.46Gb.avi
Формат : AVI
Формат/Информация : Audio Video Interleave
Размер файла : 1,46 Гбайт
Продолжительность : 1 ч. 26 м.
Общий поток : 2427 Кбит/сек
Программа кодирования : VirtualDubMod 1.5.10.2 (build 2540/release)
Библиотека кодирования : VirtualDubMod build 2540/release
Видео
Идентификатор : 0
Формат : MPEG-4 Visual
Профиль формата : Advanced [email protected]
Настройки формата : BVOP1 / Custom Matrix
Параметр BVOP формата : 1
Параметр QPel формата : Нет
Параметр GMC формата : Без точки перехода
Параметр матрицы формата : Выборочная
Идентификатор кодека : XVID
Идентификатор кодека/Подсказка : XviD
Продолжительность : 1 ч. 26 м.
Битрейт : 2034 Кбит/сек
Ширина : 704 пикселя
Высота : 400 пикселей
Соотношение сторон : 16:9
Частота кадров : 25,000 кадров/сек
Цветовое пространство : YUV
Субдискретизация насыщенности : 4:2:0
Битовая глубина : 8 бит
Тип развёртки : Прогрессивная
Метод сжатия : С потерями
Бит/(Пиксели*Кадры) : 0.289
Размер потока : 1,22 Гбайт (84%)
Библиотека кодирования : XviD 73
Аудио
Идентификатор : 1
Формат : AC-3
Формат/Информация : Audio Coding 3
Идентификатор кодека : 2000
Продолжительность : 1 ч. 26 м.
Вид битрейта : Постоянный
Битрейт : 384 Кбит/сек
Каналы : 6 каналов
Расположение каналов : Front: L C R, Side: L R, LFE
Частота : 48,0 КГц
Частота кадров : 31,250 кадров/сек (1536 SPF)
Битовая глубина : 16 бит
Метод сжатия : С потерями
Размер потока : 237 Мбайт (16%)
Выравнивание : Разделение по промежуткам
Продолжительность промежутка : 40 мс. (1,00 видеокадр)
Время предзагрузки промежутка : 500 мс.
ServiceKind/String : Complete Main
Трейлер
Download / Скачать

Хотите скачать бесплатно? Зарегистрируйтесь на сайте (ссылка на регистрацию). Pirat.ca - самый быстрый торрент трекер в рунете!

Как скачивать  ·   Что такое торрент  ·   Рейтинг и ограничения



Последний раз редактировалось: aleksey99 (2018-01-16 09:52), всего редактировалось 1 раз

usya5

Корсар

Пост 05-Янв-2018 12:28 (спустя 5 часов)

[Q] 

та ещё дурь?
или можно посмотреть?
[Профиль]  [ЛС] 

Андрей1968

Корсар

31

Пост 06-Янв-2018 18:15 (спустя 1 день 5 часов)

[Q] 

816085та ещё дурь?
или можно посмотреть?
ещё как можно.
Всем качать!!!
[Профиль]  [ЛС] 

clark

Флибустьер

Пост 06-Янв-2018 22:26 (спустя 4 часа)

[Q] 

посмотрим спасибо!!!!!!

_________________
Последним смеётся тот, кто стреляет первым.
[Профиль]  [ЛС] 

qwers1

Шкипер

Пост 07-Янв-2018 01:00 (спустя 2 часа 34 минуты)

[Q] 

Хорошая новогодняя комедия на один вечер.
[Профиль]  [ЛС] 

feldorius

Корсар

Пост 07-Янв-2018 02:53 (спустя 1 час 52 минуты)

[Q] 

Отдыхающий новогодний фильм.
[Профиль]  [ЛС] 

rancorous

Лоцман

Пост 07-Янв-2018 08:00 (спустя 5 часов)

[Q] 

хороший фильм...кому то и полезный будет! Раздающему респект!
[Профиль]  [ЛС] 

grosboy

Гроза морей

Пост 09-Янв-2018 01:52 (спустя 1 день 17 часов)

[Q] 

Интересный фильм. Оригинальный юмор. Своеобразная комедия. На раз глянуть под пиво вполне сойдёт. Приятного просмотра.

_________________
Щастье есть - его не может не быть...
[Профиль]  [ЛС] 

vasdas

Корсар

Пост 16-Янв-2018 03:32 (спустя 7 дней)

[Q] 

хорошее кино Мне понравилось если бы ещё не реклама, то раздражающих факторов не было бы Автору респект!!!
[Профиль]  [ЛС] 

aleksey99 ®

306402

Пост 16-Янв-2018 09:53 (спустя 6 часов)

[Q] 

Замена на WEB-DLRip [iTunes Russia]. Без рекламы.

_________________

[Профиль]  [ЛС] 

Golsergio

Гроза морей

Пост 16-Янв-2018 15:27 (спустя 5 часов)

[Q] 

Заценимс..... Автору респект!!!
[Профиль]  [ЛС] 

dot44

Корсар

Пост 26-Янв-2018 14:09 (спустя 9 дней)

[Q] 

Спасибо. Вариант для просмотра! Всем качать!!!
[Профиль]  [ЛС] 

Пост 09-Фев-2018 16:52 (спустя 14 дней)

Топик был перенесен из форума Новинки (HD|DVD|BD| TV|SAT|PDTV| - Rips) в форум Российские фильмы
aleksey99
 
Показать сообщения:    
Ответить на тему

Текущее время: Сегодня 03:10

Часовой пояс: GMT + 4



Вы не можете начинать темы
Вы не можете отвечать на сообщения
Вы не можете редактировать свои сообщения
Вы не можете удалять свои сообщения
Вы не можете голосовать в опросах
Вы не можете прикреплять файлы к сообщениям
Вы не можете скачивать файлы

Майнать ▼