(Russian Rock) Цой Виктор - К 50 - Летию Артиста (2CD) - 2012 [FLAC, image +.cue, lossless]

Ответить на тему
 
Автор
Сообщение

Пост 05-Янв-2018 15:37

[Q] 

sergej644

-Цой Виктор - К 50 - Летию Артиста (2CD)--
Год издания: 2012
Страна: USSR
Жанр: Russian Rock
Продолжительность: 02:22:26-Лейбл издания: Moroz records
Страна-выпуска диска: Russia
Номер по каталогу: MR 12027 DGB-Формат: FLAC
Битрейт аудио: Lossless
Тип рипа: image +.cue
Наличие сканов в содержимом раздачи: да
-Виктор Цой не споет нам новых песен, мы никогда не увидим его в новых фильмах, не будет больше давки на его концертах, но включите любую из его песен, и Виктор в своей филосовской, меланхоличной манере обьяснит, что жизнь не так уж и плоха, как это иногда кажется...
...И я вернусь домой со щитом, а может быть на щите,В серебре, а может быть, в нищете, но как можно скорей. Виталий Калгин 2012 год.


01. Алюминиевые огурцы (2:11)
Квартирник Виктора Цоя у Беляева. Москва, 25 февраля 1988г.
02. Весна (1:56)
Из альбома "Это не любовь"
03. Мама Анархия (2:07)
Квартирник Виктора Цоя у Суровцева-Бутова. Москва, 3 августа 1986г.
04. Лето (1:36)
Запись для альбома "Последний герой" в МДТ. Ленинград, январь 1983г.
05. Время есть, а денег нет (3:19)
Концерт в ДК "Мир" (В.Цой, Ю.Каспарян). Дубна, 1 марта 1987г.
06. Последний герой (2:15)
Из альбома "Ночь"
07. Закрой за мной дверь, я ухожу (4:05)
Концерт в СКК имени Ленина. Ленинград, 8 мая 1990г.
08. Завтра война (0:32)
Из альбома "Последние записи"
09. Камчатка (2:15)
Из альбома "46"
10. Муравейник (2:37)
Из альбома "Последние записи"
11. Прохожий (2:15)
Квартирник Виктора Цоя у Суровцева-Бутова. Москва, 3 августа 1986г.
12. Без десяти (2:05)
Из альбома "46"
13. Битник (2:29)
Концерт в ДК "Мир" (В.Цой, Ю.Каспарян). Дубна, 1 марта 1987г.
14. Электричка (2:14)
Квартирник у Ливерпульца-Алексиса (В.Цой, А.Рыбин), зима 1982г.
15. Сюжет для новой песни (0:58)
Запись для альбома "Последний герой" в МДТ. Ленинград, январь 1983г.
16. Раньше в твоих глазах отражались костры... (2:08)
Фонограмма для фильма "Конец каникул", 1986г.
17. Каждую ночь (2:34)
Акустический концерт в кинотеатре "Мир". Желтые воды. 27 июля 1987г.
18. В наших глазах (2:59)
Концерт памяти А.Башлачева в ДС "Лужники". Москва, 20 ноября 1988г.
19. Место для шага вперед (3:38)
Из альбома "Звезда по имени солнце"
20. Спокойная ночь (2:52)
Запись на студии "Яншива Шела". Ленинград, 1985г.
21. Кончится лето (6:01)
Из альбома "Последние записи"
22. Дерево (1:52)
Из альбома "45" (второй вариант)
23. Я объявляю свой дом (2:22)
Из альбома "Это не любовь"
24. Война (2:52)
Квартирник Виктора Цоя у Беляева. Москва, 25 февраля 1988г.
25. Группа крови (4:20)
Фонограмма для фильма "Игла". Москва, 1988г.

01. Звезда по имени Солнце (3:26)
Фонограмма для фильма "Игла". Москва, 1988г.
02. Они сказали: 'Надо пройти'... (1:07)
Из альбома "Последние записи"
03. Дождь (Ты есть...) (2:34)
Квартирник у Липницкого (В.Цой, А.Рыбин). Москва, 25 июля 1982г.
04. Песня для БГ (Осень) (2:14)
"Гарин и Гиперболоиды". Новогодний концерт у С.Рыженко. Москва. 31 декабря 1981г.
05. Возле дороги (1:39)
"Гарин и Гиперболоиды". Новогодний концерт у С.Рыженко. Москва. 31 декабря 1981г.
06. Легенда (3:56)
Акустический концкрт Виктора Цоя в малом зале Горхолла. Таллинн, 6 марта 1988г.
07. Когда твоя девушка больна (2:08)
Акустический концерт Виктора Цоя в 344 школе. Ленинград, февраль-март 1988г.
08. Восьмиклассница (2:16)
Акустический концкрт Виктора Цоя в малом зале Горхолла. Таллинн, 6 марта 1988г.
09. Малыш (2:44)
Из альбома "Последние записи"
10. Ты обвела меня вокруг пальца (3:08)
Запись на студии "Яншива Шела". Ленинград, 1985г.
11. На кухне (Кухня) (3:25)
Из альбома "45"
12. Бездельник (2:50)
Квартирник у Липницкого (В.Цой, А.Рыбин). Москва, 25 июля 1982г.
13. Мои друзья (4:35)
Из альбома "45" (второй вариант)
14. Невеселая песня (2:19)
Акустический концерт Виктора Цоя в ЛДМ на "Новой волне". Ленинград, 18 мая 1988г.
15. Мама, мы все тяжело больны (2:10)
Акустический концерт Виктора Цоя в 344 школе. Ленинград, февраль-март 1988г.
16. Пачка сигарет (2:02)
Акустический концерт Виктора Цоя в ЛДМ на "Новой волне". Ленинград, 18 мая 1988г.
17. Верь (2:13)
Из альбома "Последние записи"
18. Троллейбус (2:07)
Квартирник Виктора Цоя у Беляева. Москва, 25 февраля 1988г.
19. Кукушка (5:46)
Из альбома "Последние записи"
20. Дальше действовать будем мы (3:51)
Фонограмма для фильма "Конец каникул". 1986г.
21. Печаль (6:22)
Концерт в СКК имени Ленина. Ленинград, 8 мая 1990г.
22. Солнечные дни (2:24)
"Гарин и Гиперболоиды". Новогодний концерт у С.Рыженко. Москва. 31 декабря 1981г.
23. Стань птицей (2:10)
Квартирник Виктора Цоя у П.Краева. Ленинград, осень 1985г.
24. Попробуй спеть вместе со мной (5:15)
Фонограмма для фильма "Конец каникул". 1986г.
25. Перемен (5:13)
Фонограмма для фильма "АССА". 1987г.
-
Код:
Exact Audio Copy V1.0 beta 3 from 29. August 2011
Отчёт EAC об извлечении, выполненном 2. декабря 2012, 19:03
Виктор Цой / К 50-летию Артиста
Дисковод: PIONEER DVD-RW  DVR-218L   Adapter: 1  ID: 0
Режим чтения                 : Достоверность
Использование точного потока : Да
Отключение кэша аудио        : Да
Использование указателей C2  : Нет
Коррекция смещения при чтении                     : 6
Способность читать области Lead-in и Lead-out     : Нет
Заполнение пропущенных сэмплов тишиной            : Да
Удаление блоков с тишиной в начале и конце        : Нет
При вычислениях CRC использовались нулевые сэмплы : Да
Интерфейс                                         : Встроенный Win32-интерфейс для Win NT/2000
Выходной формат          : Пользовательский кодировщик
Выбранный битрейт        : 1024 kBit/s
Качество                 : Высокий
Добавление ID3-тега      : Да
Утилита сжатия           : C:\Program Files (x86)\FLAC\flac.exe
Дополнительные параметры : -V -8 -T "Date=%year%" -T "Genre=%genre%" %source%
TOC извлечённого CD
     Трек |   Старт  | Длительность | Начальный сектор | Конечный сектор
    ---------------------------------------------------------------------
       1  |  0:00.00 |    2:10.37   |           0      |       9786
       2  |  2:10.37 |    1:56.27   |        9787      |      18513
       3  |  4:06.64 |    2:07.24   |       18514      |      28062
       4  |  6:14.13 |    1:37.68   |       28063      |      35405
       5  |  7:52.06 |    3:19.04   |       35406      |      50334
       6  | 11:11.10 |    2:16.33   |       50335      |      60567
       7  | 13:27.43 |    4:05.00   |       60568      |      78942
       8  | 17:32.43 |    0:34.22   |       78943      |      81514
       9  | 18:06.65 |    2:16.74   |       81515      |      91788
      10  | 20:23.64 |    2:36.61   |       91789      |     103549
      11  | 23:00.50 |    2:14.60   |      103550      |     113659
      12  | 25:15.35 |    2:07.26   |      113660      |     123210
      13  | 27:22.61 |    2:28.58   |      123211      |     134368
      14  | 29:51.44 |    2:13.37   |      134369      |     144380
      15  | 32:05.06 |    0:57.66   |      144381      |     148721
      16  | 33:02.72 |    2:09.57   |      148722      |     158453
      17  | 35:12.54 |    2:36.12   |      158454      |     170165
      18  | 37:48.66 |    2:58.54   |      170166      |     183569
      19  | 40:47.45 |    3:38.15   |      183570      |     199934
      20  | 44:25.60 |    2:53.31   |      199935      |     212940
      21  | 47:19.16 |    6:02.65   |      212941      |     240155
      22  | 53:22.06 |    1:53.69   |      240156      |     248699
      23  | 55:16.00 |    2:24.24   |      248700      |     259523
      24  | 57:40.24 |    2:52.02   |      259524      |     272425
      25  | 60:32.26 |    4:19.48   |      272426      |     291898
Характеристики диапазона извлечения и сообщения об ошибках
Выбранный диапазон
     Имя файла F:\Lossless-Ape-FLAC\Кино (lossless)\2012 - К 50 - Летию Артиста (MR 12027 DGB Moroz Records)\CD1\Виктор Цой - К 50-летию Артиста.wav
     Пиковый уровень 100.0 %
     Скорость извлечения 7.3 X
     Качество диапазона 100.0 %
     CRC теста 2886176D
     CRC копии 2886176D
     Копирование... OK
Ошибок не произошло
AccurateRip: сводка
Трек  1  : извлечено точно (доверие 1)  [768364D3]  (AR v1)
Трек  2  : извлечено точно (доверие 1)  [64DFB349]  (AR v1)
Трек  3  : извлечено точно (доверие 1)  [A69E4A74]  (AR v1)
Трек  4  : извлечено точно (доверие 1)  [125C5634]  (AR v1)
Трек  5  : извлечено точно (доверие 1)  [2BFFAE38]  (AR v1)
Трек  6  : извлечено точно (доверие 1)  [EF147761]  (AR v1)
Трек  7  : извлечено точно (доверие 1)  [2D4A15A6]  (AR v1)
Трек  8  : извлечено точно (доверие 1)  [21418611]  (AR v1)
Трек  9  : извлечено точно (доверие 1)  [5D34BB60]  (AR v1)
Трек 10  : извлечено точно (доверие 1)  [A91F51CC]  (AR v1)
Трек 11  : извлечено точно (доверие 1)  [6DFF82AC]  (AR v1)
Трек 12  : извлечено точно (доверие 1)  [333A9D59]  (AR v1)
Трек 13  : извлечено точно (доверие 1)  [2D688FAC]  (AR v1)
Трек 14  : извлечено точно (доверие 1)  [E9B1C01E]  (AR v1)
Трек 15  : извлечено точно (доверие 1)  [DCA8F985]  (AR v1)
Трек 16  : извлечено точно (доверие 1)  [4C4BCE90]  (AR v1)
Трек 17  : извлечено точно (доверие 1)  [03114E9B]  (AR v1)
Трек 18  : извлечено точно (доверие 1)  [4A38509C]  (AR v1)
Трек 19  : извлечено точно (доверие 1)  [A65EC6B7]  (AR v1)
Трек 20  : извлечено точно (доверие 1)  [E790FBB4]  (AR v1)
Трек 21  : извлечено точно (доверие 1)  [3AF948B7]  (AR v1)
Трек 22  : извлечено точно (доверие 1)  [55F9BDC6]  (AR v1)
Трек 23  : извлечено точно (доверие 1)  [B8D8852F]  (AR v1)
Трек 24  : извлечено точно (доверие 1)  [EAA69373]  (AR v1)
Трек 25  точность не определена (достоверность 1)  [66DF1F95], AccurateRip вернул [482894FC]  (AR v2)
24 трек(и) скопированы точно
1 трек(и) не удалось проверить на точность
Некоторые треки не прошли проверку на точность
Конец отчёта
Код:
Exact Audio Copy V1.0 beta 3 from 29. August 2011
Отчёт EAC об извлечении, выполненном 3. декабря 2012, 15:11
Виктор Цой / К 50-Летию Артиста
Дисковод: PIONEER DVD-RW  DVR-218L   Adapter: 1  ID: 0
Режим чтения                 : Достоверность
Использование точного потока : Да
Отключение кэша аудио        : Да
Использование указателей C2  : Нет
Коррекция смещения при чтении                     : 6
Способность читать области Lead-in и Lead-out     : Нет
Заполнение пропущенных сэмплов тишиной            : Да
Удаление блоков с тишиной в начале и конце        : Нет
При вычислениях CRC использовались нулевые сэмплы : Да
Интерфейс                                         : Встроенный Win32-интерфейс для Win NT/2000
Выходной формат          : Пользовательский кодировщик
Выбранный битрейт        : 1024 kBit/s
Качество                 : Высокий
Добавление ID3-тега      : Да
Утилита сжатия           : C:\Program Files (x86)\FLAC\flac.exe
Дополнительные параметры : -V -8 -T "Date=%year%" -T "Genre=%genre%" %source%
TOC извлечённого CD
     Трек |   Старт  | Длительность | Начальный сектор | Конечный сектор
    ---------------------------------------------------------------------
       1  |  0:00.00 |    3:25.48   |           0      |      15422
       2  |  3:25.48 |    1:06.44   |       15423      |      20416
       3  |  4:32.17 |    2:33.34   |       20417      |      31925
       4  |  7:05.51 |    2:14.20   |       31926      |      41995
       5  |  9:19.71 |    1:38.59   |       41996      |      49404
       6  | 10:58.55 |    3:56.26   |       49405      |      67130
       7  | 14:55.06 |    2:07.68   |       67131      |      76723
       8  | 17:02.74 |    2:16.26   |       76724      |      86949
       9  | 19:19.25 |    2:44.34   |       86950      |      99283
      10  | 22:03.59 |    3:08.00   |       99284      |     113383
      11  | 25:11.59 |    3:24.37   |      113384      |     128720
      12  | 28:36.21 |    2:50.00   |      128721      |     141470
      13  | 31:26.21 |    4:35.15   |      141471      |     162110
      14  | 36:01.36 |    2:19.00   |      162111      |     172535
      15  | 38:20.36 |    2:09.42   |      172536      |     182252
      16  | 40:30.03 |    2:01.68   |      182253      |     191395
      17  | 42:31.71 |    2:12.68   |      191396      |     201363
      18  | 44:44.64 |    2:06.52   |      201364      |     210865
      19  | 46:51.41 |    5:46.13   |      210866      |     236828
      20  | 52:37.54 |    3:51.08   |      236829      |     254161
      21  | 56:28.62 |    6:21.47   |      254162      |     282783
      22  | 62:50.34 |    2:23.73   |      282784      |     293581
      23  | 65:14.32 |    2:10.17   |      293582      |     303348
      24  | 67:24.49 |    5:14.48   |      303349      |     326946
      25  | 72:39.22 |    5:13.21   |      326947      |     350442
Характеристики диапазона извлечения и сообщения об ошибках
Выбранный диапазон
     Имя файла F:\Lossless-Ape-FLAC\Кино (lossless)\2012 - К 50 - Летию Артиста (MR 12027 DGB Moroz Records)\CD2\Виктор Цой - К 50-Летию Артиста.wav
     Пиковый уровень 99.3 %
     Скорость извлечения 2.1 X
     Качество диапазона 99.9 %
     CRC теста C0599DFB
     CRC копии C0599DFB
     Копирование... OK
Ошибок не произошло
AccurateRip: сводка
Трек  1  : извлечено точно (доверие 1)  [97D000BD]  (AR v1)
Трек  2  : извлечено точно (доверие 1)  [AEC4BDFC]  (AR v1)
Трек  3  : извлечено точно (доверие 1)  [3440E65A]  (AR v1)
Трек  4  : извлечено точно (доверие 1)  [CB69EAA7]  (AR v1)
Трек  5  : извлечено точно (доверие 1)  [450A854E]  (AR v1)
Трек  6  : извлечено точно (доверие 1)  [37DE866B]  (AR v1)
Трек  7  : извлечено точно (доверие 1)  [441D43B1]  (AR v1)
Трек  8  : извлечено точно (доверие 1)  [7924B0CE]  (AR v1)
Трек  9  : извлечено точно (доверие 1)  [F987065C]  (AR v1)
Трек 10  : извлечено точно (доверие 1)  [8F647172]  (AR v1)
Трек 11  : извлечено точно (доверие 1)  [C2B16BDC]  (AR v1)
Трек 12  : извлечено точно (доверие 1)  [D8D8320A]  (AR v1)
Трек 13  : извлечено точно (доверие 1)  [124B0336]  (AR v1)
Трек 14  : извлечено точно (доверие 1)  [EB059362]  (AR v1)
Трек 15  : извлечено точно (доверие 1)  [5318A06F]  (AR v1)
Трек 16  : извлечено точно (доверие 1)  [C5F53807]  (AR v1)
Трек 17  : извлечено точно (доверие 1)  [3CF08A5B]  (AR v1)
Трек 18  : извлечено точно (доверие 1)  [A543E3A4]  (AR v1)
Трек 19  : извлечено точно (доверие 1)  [DEA8833D]  (AR v1)
Трек 20  : извлечено точно (доверие 1)  [365DA9F1]  (AR v1)
Трек 21  : извлечено точно (доверие 1)  [8023052F]  (AR v1)
Трек 22  : извлечено точно (доверие 1)  [F5847569]  (AR v1)
Трек 23  : извлечено точно (доверие 1)  [DF2A3A29]  (AR v1)
Трек 24  : извлечено точно (доверие 1)  [32DB503F]  (AR v1)
Трек 25  : извлечено точно (доверие 1)  [F6714AC7]  (AR v1)
Все треки извлечены точно
Конец отчёта
Код:
REM GENRE Rock
REM DATE 2012
REM DISCID 650F3319
REM COMMENT "ExactAudioCopy v1.0b3"
PERFORMER "Виктор Цой"
TITLE "К 50-летию Артиста"
FILE "Виктор Цой - К 50-летию Артиста.flac" WAVE
  TRACK 01 AUDIO
    TITLE "Алюминиевые огурцы"
    PERFORMER "Виктор Цой"
    INDEX 01 00:00:00
  TRACK 02 AUDIO
    TITLE "Весна"
    PERFORMER "Виктор Цой"
    INDEX 01 02:10:37
  TRACK 03 AUDIO
    TITLE "Мама Анархия"
    PERFORMER "Виктор Цой"
    INDEX 01 04:06:64
  TRACK 04 AUDIO
    TITLE "Лето"
    PERFORMER "Виктор Цой"
    INDEX 01 06:14:13
  TRACK 05 AUDIO
    TITLE "Время есть, а денег нет"
    PERFORMER "Виктор Цой"
    INDEX 00 07:50:05
    INDEX 01 07:52:06
  TRACK 06 AUDIO
    TITLE "Последний герой"
    PERFORMER "Виктор Цой"
    INDEX 01 11:11:10
  TRACK 07 AUDIO
    TITLE "Закрой за мной дверь, я ухожу"
    PERFORMER "Виктор Цой"
    INDEX 00 13:25:42
    INDEX 01 13:27:43
  TRACK 08 AUDIO
    TITLE "Завтра война"
    PERFORMER "Виктор Цой"
    INDEX 01 17:32:43
  TRACK 09 AUDIO
    TITLE "Камчатка"
    PERFORMER "Виктор Цой"
    INDEX 00 18:04:65
    INDEX 01 18:06:65
  TRACK 10 AUDIO
    TITLE "Муравейник"
    PERFORMER "Виктор Цой"
    INDEX 00 20:21:64
    INDEX 01 20:23:64
  TRACK 11 AUDIO
    TITLE "Прохожий"
    PERFORMER "Виктор Цой"
    INDEX 01 23:00:50
  TRACK 12 AUDIO
    TITLE "Без десяти"
    PERFORMER "Виктор Цой"
    INDEX 01 25:15:35
  TRACK 13 AUDIO
    TITLE "Битник"
    PERFORMER "Виктор Цой"
    INDEX 00 27:20:61
    INDEX 01 27:22:61
  TRACK 14 AUDIO
    TITLE "Электричка"
    PERFORMER "Виктор Цой"
    INDEX 01 29:51:44
  TRACK 15 AUDIO
    TITLE "Сюжет для новой песни"
    PERFORMER "Виктор Цой"
    INDEX 01 32:05:06
  TRACK 16 AUDIO
    TITLE "Раньше в твоих глазах отражались костры..."
    PERFORMER "Виктор Цой"
    INDEX 01 33:02:72
  TRACK 17 AUDIO
    TITLE "Каждую ночь"
    PERFORMER "Виктор Цой"
    INDEX 00 35:10:54
    INDEX 01 35:12:54
  TRACK 18 AUDIO
    TITLE "В наших глазах"
    PERFORMER "Виктор Цой"
    INDEX 00 37:46:66
    INDEX 01 37:48:66
  TRACK 19 AUDIO
    TITLE "Место для шага вперед"
    PERFORMER "Виктор Цой"
    INDEX 01 40:47:45
  TRACK 20 AUDIO
    TITLE "Спокойная ночь"
    PERFORMER "Виктор Цой"
    INDEX 01 44:25:60
  TRACK 21 AUDIO
    TITLE "Кончится лето"
    PERFORMER "Виктор Цой"
    INDEX 00 47:17:15
    INDEX 01 47:19:16
  TRACK 22 AUDIO
    TITLE "Дерево"
    PERFORMER "Виктор Цой"
    INDEX 00 53:20:06
    INDEX 01 53:22:06
  TRACK 23 AUDIO
    TITLE "Я объявляю свой дом"
    PERFORMER "Виктор Цой"
    INDEX 00 55:13:74
    INDEX 01 55:16:00
  TRACK 24 AUDIO
    TITLE "Война"
    PERFORMER "Виктор Цой"
    INDEX 00 57:38:24
    INDEX 01 57:40:24
  TRACK 25 AUDIO
    TITLE "Группа крови"
    PERFORMER "Виктор Цой"
    INDEX 01 60:32:26
Код:
REM GENRE Rock
REM DATE 2012
REM DISCID 59124019
REM COMMENT "ExactAudioCopy v1.0b3"
PERFORMER "Виктор Цой"
TITLE "К 50-Летию Артиста"
FILE "Виктор Цой - К 50-Летию Артиста.flac" WAVE
  TRACK 01 AUDIO
    TITLE "Звезда по имени Солнце"
    PERFORMER "Виктор Цой"
    FLAGS DCP
    INDEX 01 00:00:00
  TRACK 02 AUDIO
    TITLE "Они сказали: 'Надо пройти'..."
    PERFORMER "Виктор Цой"
    FLAGS DCP
    INDEX 01 03:25:48
  TRACK 03 AUDIO
    TITLE "Дождь (Ты есть...)"
    PERFORMER "Виктор Цой"
    FLAGS DCP
    INDEX 01 04:32:17
  TRACK 04 AUDIO
    TITLE "Песня для БГ (Осень)"
    PERFORMER "Виктор Цой"
    FLAGS DCP
    INDEX 01 07:05:51
  TRACK 05 AUDIO
    TITLE "Возле дороги"
    PERFORMER "Виктор Цой"
    FLAGS DCP
    INDEX 01 09:19:71
  TRACK 06 AUDIO
    TITLE "Легенда"
    PERFORMER "Виктор Цой"
    FLAGS DCP
    INDEX 01 10:58:55
  TRACK 07 AUDIO
    TITLE "Когда твоя девушка больна"
    PERFORMER "Виктор Цой"
    FLAGS DCP
    INDEX 01 14:55:06
  TRACK 08 AUDIO
    TITLE "Восьмиклассница"
    PERFORMER "Виктор Цой"
    FLAGS DCP
    INDEX 01 17:02:74
  TRACK 09 AUDIO
    TITLE "Малыш"
    PERFORMER "Виктор Цой"
    FLAGS DCP
    INDEX 01 19:19:25
  TRACK 10 AUDIO
    TITLE "Ты обвела меня вокруг пальца"
    PERFORMER "Виктор Цой"
    FLAGS DCP
    INDEX 01 22:03:59
  TRACK 11 AUDIO
    TITLE "На кухне (Кухня)"
    PERFORMER "Виктор Цой"
    FLAGS DCP
    INDEX 01 25:11:59
  TRACK 12 AUDIO
    TITLE "Бездельник"
    PERFORMER "Виктор Цой"
    FLAGS DCP
    INDEX 01 28:36:21
  TRACK 13 AUDIO
    TITLE "Мои друзья"
    PERFORMER "Виктор Цой"
    FLAGS DCP
    INDEX 01 31:26:21
  TRACK 14 AUDIO
    TITLE "Невеселая песня"
    PERFORMER "Виктор Цой"
    FLAGS DCP
    INDEX 01 36:01:36
  TRACK 15 AUDIO
    TITLE "Мама, мы все тяжело больны"
    PERFORMER "Виктор Цой"
    FLAGS DCP
    INDEX 01 38:20:36
  TRACK 16 AUDIO
    TITLE "Пачка сигарет"
    PERFORMER "Виктор Цой"
    FLAGS DCP
    INDEX 01 40:30:03
  TRACK 17 AUDIO
    TITLE "Верь"
    PERFORMER "Виктор Цой"
    FLAGS DCP
    INDEX 01 42:31:71
  TRACK 18 AUDIO
    TITLE "Троллейбус"
    PERFORMER "Виктор Цой"
    FLAGS DCP
    INDEX 01 44:44:64
  TRACK 19 AUDIO
    TITLE "Кукушка"
    PERFORMER "Виктор Цой"
    FLAGS DCP
    INDEX 01 46:51:41
  TRACK 20 AUDIO
    TITLE "Дальше действовать будем мы"
    PERFORMER "Виктор Цой"
    FLAGS DCP
    INDEX 01 52:37:54
  TRACK 21 AUDIO
    TITLE "Печаль"
    PERFORMER "Виктор Цой"
    FLAGS DCP
    INDEX 01 56:28:62
  TRACK 22 AUDIO
    TITLE "Солнечные дни"
    PERFORMER "Виктор Цой"
    FLAGS DCP
    INDEX 01 62:50:34
  TRACK 23 AUDIO
    TITLE "Стань птицей"
    PERFORMER "Виктор Цой"
    FLAGS DCP
    INDEX 01 65:14:32
  TRACK 24 AUDIO
    TITLE "Попробуй спеть вместе со мной"
    PERFORMER "Виктор Цой"
    FLAGS DCP
    INDEX 01 67:24:49
  TRACK 25 AUDIO
    TITLE "Перемен"
    PERFORMER "Виктор Цой"
    FLAGS DCP
    INDEX 01 72:39:22
--
Download / Скачать

Хотите скачать бесплатно? Зарегистрируйтесь на сайте (ссылка на регистрацию). Pirat.ca - самый быстрый торрент трекер в рунете!

Как скачивать  ·   Что такое торрент  ·   Рейтинг и ограничения

Mindphaser

Корсар

Пост 08-Янв-2018 02:23 (спустя 2 дня 10 часов)

[Q] 

Спасибо! Классный сборник.

_________________
[Профиль]  [ЛС] 
Показать сообщения:    
Ответить на тему

Текущее время: Сегодня 11:05

Часовой пояс: GMT + 4



Вы не можете начинать темы
Вы не можете отвечать на сообщения
Вы не можете редактировать свои сообщения
Вы не можете удалять свои сообщения
Вы не можете голосовать в опросах
Вы не можете прикреплять файлы к сообщениям
Вы не можете скачивать файлы

Майнать ▼