Бегущий по лезвию 2049 / Blade Runner 2049 (Дени Вильнёв / Denis Villeneuve) [2017 г., фантастика, триллер, драма, BDRip-AVC] Dub [Лицензия] + Sub (Rus)

Ответить на тему
 
Автор
Сообщение

Пост 05-Янв-2018 15:45

[Q] 

aleksey99

--Бегущий по лезвию 2049 / Blade Runner 2049-- Производство: США, Великобритания, Венгрия, Канада / 16:14 Entertainment, Alcon Entertainment, Columbia Pictures
Год выпуска: 2017 г.
Жанр: фантастика, триллер, драма, детектив
Продолжительность: 02:43:27--Мировая премьера: 3 октября 2017
Российская премьера: 5 октября 2017, «WDSSPR»
Цифровой релиз: 02 января 2018, «Sony Pictures Home Entertainment»--Перевод: Профессиональный (полное дублирование) [Лицензия]--Режиссер: Дени Вильнёв / Denis Villeneuve--В ролях: Райан Гослинг, Харрисон Форд, Джаред Лето, Ана де Армас, Сильвия Хукс, Робин Райт, Маккензи Дэвис, Карла Юри, Ленни Джеймс, Дэйв Батиста--Описание: В недалеком будущем мир населен людьми и репликантами, созданными выполнять самую тяжелую работу. Работа офицера полиции Кей — держать репликантов под контролем в условиях нарастающего напряжения… Пока он случайно не становится обладателем секретной информации, которая ставит под угрозу существование всего человечества. Желая найти ключ к разгадке, Кей решает разыскать Рика Декарда, бывшего офицера специального подразделения полиции Лос-Анджелеса, который бесследно исчез много лет назад.-- --Качество видео: BDRip-AVC
Контейнер: MKV
Видео кодек: AVC/H.264
Аудио кодек: AC3
Видео: 912x380 (2.40:1), 23.976 fps, x264 ~895 kbps avg, 0.108 bit/pixel
Аудио: 48 kHz, AC3 Dolby Digital, 3/2 (L,C,R,l,r) + LFE ch, ~384 kbps
Cубтитры: русские (форс. стилизованные, хардсаб).
Общее
Уникальный идентификатор : 184829486450195984061670886373602256487 (0x8B0CDD3FE1D6A48B9C9042A1BC0A6667)
Полное имя : H:\Torrent2\Beguschiy.po.lezviyu.2049.2017.RUS.BDRip.x264.mkv
Формат : Matroska
Версия формата : Version 4 / Version 2
Размер файла : 1,46 Гбайт
Продолжительность : 2 ч. 43 м.
Общий поток : 1281 Кбит/сек
Название фильма : Blade Runner 2049 (2017)
Дата кодирования : UTC 2018-01-05 10:57:12
Программа кодирования : mkvmerge v5.9.0 ('On The Loose') built on Dec 15 2012 16:39:58
Библиотека кодирования : libebml v1.3.0 + libmatroska v1.4.0
Видео
Идентификатор : 1
Формат : AVC
Формат/Информация : Advanced Video Codec
Профиль формата : [email protected]
Параметр CABAC формата : Да
Параметр ReFrames формата : 12 кадров
Идентификатор кодека : V_MPEG4/ISO/AVC
Продолжительность : 2 ч. 43 м.
Битрейт : 895 Кбит/сек
Ширина : 912 пикселей
Высота : 380 пикселей
Соотношение сторон : 2,40:1
Режим частоты кадров : Постоянный
Частота кадров : 23,976 (24000/1001) кадра/сек
Цветовое пространство : YUV
Субдискретизация насыщенности : 4:2:0
Битовая глубина : 8 бит
Тип развёртки : Прогрессивная
Бит/(Пиксели*Кадры) : 0.108
Размер потока : 1019 Мбайт (68%)
Заголовок : potroks
Библиотека кодирования : x264 core 148 r2638 7599210
Настройки программы : cabac=1 / ref=12 / deblock=1:-1:-1 / analyse=0x3:0x113 / me=umh / subme=11 / psy=1 / psy_rd=1.00:0.05 / mixed_ref=1 / me_range=48 / chroma_me=1 / trellis=2 / 8x8dct=1 / cqm=0 / deadzone=21,11 / fast_pskip=0 / chroma_qp_offset=-3 / threads=9 / lookahead_threads=2 / sliced_threads=0 / nr=0 / decimate=0 / interlaced=0 / bluray_compat=0 / constrained_intra=0 / bframes=13 / b_pyramid=2 / b_adapt=2 / b_bias=0 / direct=3 / weightb=1 / open_gop=0 / weightp=2 / keyint=240 / keyint_min=23 / scenecut=40 / intra_refresh=0 / rc_lookahead=60 / rc=2pass / mbtree=0 / bitrate=895 / ratetol=1.0 / qcomp=0.70 / qpmin=0 / qpmax=69 / qpstep=4 / cplxblur=20.0 / qblur=0.5 / vbv_maxrate=14000 / vbv_bufsize=14000 / nal_hrd=none / filler=0 / ip_ratio=1.40 / pb_ratio=1.30 / aq=2:0.80
Язык : English
Default : Да
Forced : Нет
Аудио
Идентификатор : 2
Формат : AC-3
Формат/Информация : Audio Coding 3
Расширение режима : CM (complete main)
Параметр Endianness формата : Big
Идентификатор кодека : A_AC3
Продолжительность : 2 ч. 43 м.
Вид битрейта : Постоянный
Битрейт : 384 Кбит/сек
Каналы : 6 каналов
Расположение каналов : Front: L C R, Side: L R, LFE
Частота : 48,0 КГц
Частота кадров : 31,250 кадров/сек (1536 spf)
Метод сжатия : С потерями
Размер потока : 449 Мбайт (30%)
Заголовок : Dub | DD 5.1 @ 384 kbps - Blu-ray CEE
Язык : Russian
Default : Да
Forced : Нет
Текст #1
Идентификатор : 3
Формат : UTF-8
Идентификатор кодека : S_TEXT/UTF8
Идентификатор кодека/Информация : UTF-8 Plain Text
Заголовок : Blu-ray
Язык : Russian
Default : Нет
Forced : Нет
Текст #2
Идентификатор : 4
Формат : UTF-8
Идентификатор кодека : S_TEXT/UTF8
Идентификатор кодека/Информация : UTF-8 Plain Text
Заголовок : Studio Focs
Язык : Russian
Default : Нет
Forced : Нет
Меню
00:00:00.000 : en:(01)00:00:00:000
00:12:36.172 : en:(02)00:12:36:172
00:23:29.282 : en:(03)00:23:29:282
00:37:00.885 : en:(04)00:37:00:885
00:42:50.317 : en:(05)00:42:50:317
00:49:24.503 : en:(06)00:49:24:503
00:58:35.553 : en:(07)00:58:35:553
01:04:10.680 : en:(08)01:04:10:680
01:15:47.292 : en:(09)01:15:47:292
01:25:12.482 : en:(10)01:25:12:482
01:36:15.060 : en:(11)01:36:15:060
01:50:55.106 : en:(12)01:50:55:106
02:01:36.872 : en:(13)02:01:36:872
02:08:40.379 : en:(14)02:08:40:379
02:16:42.485 : en:(15)02:16:42:485
02:27:46.732 : en:(16)02:27:46:732
Трейлер
Download / Скачать

Хотите скачать бесплатно? Зарегистрируйтесь на сайте (ссылка на регистрацию). Pirat.ca - самый быстрый торрент трекер в рунете!

Как скачивать  ·   Что такое торрент  ·   Рейтинг и ограничения

ss80

Гроза морей

36

Пост 05-Янв-2018 18:42 (спустя 2 часа 56 минут)

[Q] 

Спасибо!!!
[Профиль]  [ЛС] 

aka_johnny

Флибустьер

Пост 05-Янв-2018 19:03 (спустя 21 минута)

[Q] 

спасибо
обязательно перед просмотром пересмотрите первую часть!!!!
очень много пасхалок и завязок
[Профиль]  [ЛС] 

ketzer

Корсар

Пост 06-Янв-2018 03:33 (спустя 8 часов)

[Q] 

Искренне сочувствую тем, кто почти три часа смотрел его в кино. Из фантастики в этом фильме только фантастически косячные постановка и сценарий.
[Профиль]  [ЛС] 

TriToN_S

Шкипер

Пост 17-Янв-2018 00:20 (спустя 10 дней)

[Q] 

Спасибо! Мне понравилось Раздающему респект!
[Профиль]  [ЛС] 

Окакий

Лоцман

Пост 26-Янв-2018 23:00 (спустя 9 дней)

[Q] 

Может быть, я не в теме, но фильм очень скучный.
[Профиль]  [ЛС] 

Лерычъ

Штурман

Пост 27-Янв-2018 21:23 (спустя 22 часа)

[Q] 

Спасибо, ждали! Спасибо!!! Лови бочку
[Профиль]  [ЛС] 

Полтос

Гроза морей

Пост 28-Янв-2018 02:18 (спустя 4 часа)

[Q] 

Оригинал прошел мимо. Этот фильм ешё мимее... Трафик потрачен зря!

_________________
Первый закон Прапорщика: Всё что поднимаемо - относительно!)
[Профиль]  [ЛС] 

денис19780923

Шкипер

Пост 31-Янв-2018 19:53 (спустя 3 дня)

[Q] 

я его не понял...
[Профиль]  [ЛС] 

Пост 09-Фев-2018 16:52 (спустя 8 дней)

Топик был перенесен из форума Новинки (HD|DVD|BD| TV|SAT|PDTV| - Rips) в форум Фильмы 2010 - 2017 г.г.
aleksey99
 

terranova

Штурман

Пост 10-Фев-2018 18:40 (спустя 9 дней)

[Q] 

Спасибо, посмотрел
[Профиль]  [ЛС] 

sztksales

Морской Волк

387

Пост 17-Фев-2018 14:15 (спустя 6 дней)

[Q] 

Тупорылый сценарий, фильм для америкосов.
Сюжет высосан из пальца. WTF!

_________________
[Профиль]  [ЛС] 
Показать сообщения:    
Ответить на тему

Текущее время: Сегодня 04:30

Часовой пояс: GMT + 4



Вы не можете начинать темы
Вы не можете отвечать на сообщения
Вы не можете редактировать свои сообщения
Вы не можете удалять свои сообщения
Вы не можете голосовать в опросах
Вы не можете прикреплять файлы к сообщениям
Вы не можете скачивать файлы

Майнать ▼