(Heavy Metal, Power Metal) VA - Latest Chistmas songs. (Rock Ballads) - 2018 [FLAC, image +.cue, lossless]

Ответить на тему
 
Автор
Сообщение

Пост 05-Янв-2018 20:00

[Q] 

sergej644

-VA - Latest Chistmas songs. (Rock Ballads)--
Год издания: 2018
Страна:
Жанр: Heavy Metal, Power Metal
Продолжительность: 01:17:36-Лейбл издания: © 2018 SoundInnovations
Страна-выпуска диска: EU -Формат: FLAC
Битрейт аудио: Lossless
Тип рипа: image +.cue
Наличие сканов в содержимом раздачи: да
-

01. Avenged Sevenfold - Roman Sky (5:00)
02. Beast In Black - Ghost In The Rain (5:35)
03. Cardiant - Shine (3:40)
04. Chris Norman - Losing You (3:49)
05. Dreamtide - Help Me (6:10)
06. Fixer - When It Comes to You (5:07)
07. Golden Earring - Going to the Run (3:58)
08. Great White - Save Your Love (4:42)
09. Ian Gillan & Tony Iommi - WhoCares Holy Water (7:00)
10. King Company - No Man's Land (5:28)
11. Kingdom Come - Friends (4:38)
12. L.A.Guns - Gave It All Away (5:27)
13. Snakecharmer - Falling Leaves (5:55)
14. The Defiants - Save Me Tonight (5:54)
15. Wille And The Bandits - Scared Of The Sun (5:14)
-
Код:
Exact Audio Copy V1.3 from 2. September 2016
EAC extraction logfile from 31. December 2017, 22:05
Various / Latest Christmas Songs. Rock Ballads 2018
Used drive  : HL-DT-STCD-RW GCE-8526B   Adapter: 0  ID: 0
Read mode               : Secure
Utilize accurate stream : Yes
Defeat audio cache      : Yes
Make use of C2 pointers : No
Read offset correction                      : 6
Overread into Lead-In and Lead-Out          : No
Fill up missing offset samples with silence : Yes
Delete leading and trailing silent blocks   : No
Null samples used in CRC calculations       : Yes
Used interface                              : Installed external ASPI interface
Used output format              : User Defined Encoder
Selected bitrate                : 128 kBit/s
Quality                         : High
Add ID3 tag                     : No
Command line compressor         : C:\Program Files (x86)\Exact Audio Copy\FLAC\FLAC.EXE
Additional command line options : -V -8 -T "Date=%year%" -T "Genre=%genre%" -T"COMMENT=Ripped by vinni0809" -8 -V %source%
TOC of the extracted CD
     Track |   Start  |  Length  | Start sector | End sector
    ---------------------------------------------------------
        1  |  0:00.00 |  5:00.27 |         0    |    22526
        2  |  5:00.27 |  5:35.09 |     22527    |    47660
        3  | 10:35.36 |  3:39.61 |     47661    |    64146
        4  | 14:15.22 |  3:48.64 |     64147    |    81310
        5  | 18:04.11 |  6:09.66 |     81311    |   109051
        6  | 24:14.02 |  5:07.31 |    109052    |   132107
        7  | 29:21.33 |  3:57.42 |    132108    |   149924
        8  | 33:19.00 |  4:41.60 |    149925    |   171059
        9  | 38:00.60 |  6:59.73 |    171060    |   202557
       10  | 45:00.58 |  5:27.52 |    202558    |   227134
       11  | 50:28.35 |  4:37.42 |    227135    |   247951
       12  | 55:06.02 |  5:27.03 |    247952    |   272479
       13  | 60:33.05 |  5:54.63 |    272480    |   299092
       14  | 66:27.68 |  5:53.51 |    299093    |   325618
       15  | 72:21.44 |  5:14.37 |    325619    |   349205
Range status and errors
Selected range
     Filename F:\vinni0809\Various - Latest Christmas Songs. Rock Ballads 2018.wav
     Peak level 100.0 %
     Extraction speed 7.0 X
     Range quality 100.0 %
     Test CRC FD77D576
     Copy CRC FD77D576
     Copy OK
No errors occurred
AccurateRip summary
Track  1  not present in database
Track  2  not present in database
Track  3  not present in database
Track  4  not present in database
Track  5  not present in database
Track  6  not present in database
Track  7  not present in database
Track  8  not present in database
Track  9  not present in database
Track 10  not present in database
Track 11  not present in database
Track 12  not present in database
Track 13  not present in database
Track 14  not present in database
Track 15  not present in database
None of the tracks are present in the AccurateRip database
End of status report
Код:
REM GENRE Rock
REM DATE 2018
REM DISCID C712300F
REM COMMENT "ExactAudioCopy v1.3"
PERFORMER "Various"
TITLE "Latest Christmas Songs. Rock Ballads 2018"
REM COMPOSER ""
FILE "Various - Latest Christmas Songs. Rock Ballads 2018.flac" WAVE
  TRACK 01 AUDIO
    TITLE "Roman Sky"
    PERFORMER "Avenged Sevenfold"
    REM COMPOSER ""
    FLAGS DCP
    INDEX 01 00:00:00
  TRACK 02 AUDIO
    TITLE "Ghost In The Rain"
    PERFORMER "Beast In Black"
    REM COMPOSER ""
    FLAGS DCP
    INDEX 01 05:00:27
  TRACK 03 AUDIO
    TITLE "Shine"
    PERFORMER "Cardiant"
    REM COMPOSER ""
    FLAGS DCP
    INDEX 01 10:35:36
  TRACK 04 AUDIO
    TITLE "Losing You"
    PERFORMER "Chris Norman"
    REM COMPOSER ""
    FLAGS DCP
    INDEX 01 14:15:22
  TRACK 05 AUDIO
    TITLE "Help Me"
    PERFORMER "Dreamtide"
    REM COMPOSER ""
    FLAGS DCP
    INDEX 01 18:04:11
  TRACK 06 AUDIO
    TITLE "When It Comes to You"
    PERFORMER "Fixer"
    REM COMPOSER ""
    FLAGS DCP
    INDEX 01 24:14:02
  TRACK 07 AUDIO
    TITLE "Going to the Run"
    PERFORMER "Golden Earring"
    REM COMPOSER ""
    FLAGS DCP
    INDEX 01 29:21:33
  TRACK 08 AUDIO
    TITLE "Save Your Love"
    PERFORMER "Great White"
    REM COMPOSER ""
    FLAGS DCP
    INDEX 01 33:19:00
  TRACK 09 AUDIO
    TITLE "WhoCares Holy Water"
    PERFORMER "Ian Gillan & Tony Iommi"
    REM COMPOSER ""
    FLAGS DCP
    INDEX 01 38:00:60
  TRACK 10 AUDIO
    TITLE "No Man's Land"
    PERFORMER "King Company"
    REM COMPOSER ""
    FLAGS DCP
    INDEX 01 45:00:58
  TRACK 11 AUDIO
    TITLE "Friends"
    PERFORMER "Kingdom Come"
    REM COMPOSER ""
    FLAGS DCP
    INDEX 01 50:28:35
  TRACK 12 AUDIO
    TITLE "Gave It All Away"
    PERFORMER "L.A.Guns"
    REM COMPOSER ""
    FLAGS DCP
    INDEX 01 55:06:02
  TRACK 13 AUDIO
    TITLE "Falling Leaves"
    PERFORMER "Snakecharmer"
    REM COMPOSER ""
    FLAGS DCP
    INDEX 01 60:33:05
  TRACK 14 AUDIO
    TITLE "Save Me Tonight"
    PERFORMER "The Defiants"
    REM COMPOSER ""
    FLAGS DCP
    INDEX 01 66:27:68
  TRACK 15 AUDIO
    TITLE "Scared Of The Sun"
    PERFORMER "Wille And The Bandits"
    REM COMPOSER ""
    FLAGS DCP
    INDEX 01 72:21:44
--
Download / Скачать

Хотите скачать бесплатно? Зарегистрируйтесь на сайте (ссылка на регистрацию). Pirat.ca - самый быстрый торрент трекер в рунете!

Как скачивать  ·   Что такое торрент  ·   Рейтинг и ограничения

Мерзавец

Морской Волк

Пост 06-Янв-2018 04:00 (спустя 7 часов)

[Q] 

хистмасс? эффект
[Профиль]  [ЛС] 

vinni0809

Пост 28-Фев-2018 23:08 (спустя 1 месяц 22 дня)

[Q] 

Вообще то - это мой рип. Только откуда его "стырили", остаётся только гадать...
[Профиль]  [ЛС] 

sergej644 ®

16670

Пост 01-Мар-2018 12:54 (спустя 13 часов)

[Q] 

820110Вообще то - это мой рип. Только откуда его "стырили", остаётся только гадать...
Ваш релиз находился в свободном доступе в интернете... Вопрос о "стырили" - чисто риторический
Большое СПАСИБО за Ваш Рип!!!

_________________
[Профиль]  [ЛС] 
Показать сообщения:    
Ответить на тему

Текущее время: Сегодня 08:19

Часовой пояс: GMT + 4



Вы не можете начинать темы
Вы не можете отвечать на сообщения
Вы не можете редактировать свои сообщения
Вы не можете удалять свои сообщения
Вы не можете голосовать в опросах
Вы не можете прикреплять файлы к сообщениям
Вы не можете скачивать файлы

Майнать ▼