Калифорнийский дорожный патруль / CHIPS (Дэкс Шепард / Dax Shepard) [2017 г., боевик, комедия, криминал, BDRip-AVC] Dub [iTunes] + Original (Eng) + Sub (Rus, Eng)

Ответить на тему
 
Автор
Сообщение

Пост 06-Янв-2018 14:51

[Q] 

aleksey99

--Калифорнийский дорожный патруль / CHIPS--«Chip Happens»-- Производство: Канада, Австралия, США / Warner Bros. Pictures, Primate Pictures.
Год выпуска: 2017 г.
Жанр: боевик, комедия, криминал
Продолжительность: 01:40:52--Перевод: Профессиональный (полное дублирование) [iTunes]
Оригинальный аудиопоток: английский--Режиссер: Дэкс Шепард / Dax Shepard--В ролях: Майкл Пенья, Дэкс Шепард, Джессика МакНэми, Адам Броди, Райан Хансен, Кристен Белл, Джэми Бок, Джастин Чатвин, Камерон Крус, Клэй Каллен--Описание: Агент ФБР, специалист по работе под прикрытием и охмурению женщин, получает новое задание — провести внутренне расследование в калифорнийском дорожном патруле. Банда на скоростных мотоциклах грабит инкассаторские автомобили, и ФБР подозревает, что им помогает кто-то из своих. Новую личность агента под прикрытием зовут Френк Пончарелло, и теперь он патрулирует дороги солнечной Калифорнии. В напарники ему достается принципиальный новичок и бывший мотогонщик Джон, на которого без слёз не взглянешь — парень перенёс кучу операций, поэтому жить не может без обезболивающих.-- --Качество видео: BDRip-AVC
Контейнер: MKV
Видео кодек: AVC/H.264
Аудио кодек: AC3
Видео: x264, 1024x576 (16:9) 23,976 fps, ~3235 kbps, 0.229 bit/pixel
Аудио 1: 48 kHz, AC3 Dolby Digital, 3/2 (L,C,R,l,r) + LFE ch, ~384 kbps RUS
Аудио 2: 48 kHz, AC3 Dolby Digital, 3/2 (L,C,R,l,r) + LFE ch, ~448 kbps ENG
Cубтитры: русские (iTunes), английские (Full), английские (SDH), английские (SDH-Colored).
Общее
Уникальный идентификатор : 181919159325714719017724790448665341513 (0x88DC5B0B3E6089CEBF199186604F2E49)
Полное имя : H:\Torrent2\Kaliforniyskiy.Dorozhyi.Patrul.2017.DUAL.BDRip.x264.mkv
Формат : Matroska
Версия формата : Version 4 / Version 2
Размер файла : 2,86 Гбайт
Продолжительность : 1 ч. 40 м.
Общий поток : 4063 Кбит/сек
Название фильма : CHIPS (2017)
Дата кодирования : UTC 2017-12-05 03:35:12
Программа кодирования : mkvmerge v5.9.0 ('On The Loose') built on Dec 15 2012 16:39:58
Библиотека кодирования : libebml v1.3.0 + libmatroska v1.4.0
Видео
Идентификатор : 1
Формат : AVC
Формат/Информация : Advanced Video Codec
Профиль формата : [email protected]
Параметр CABAC формата : Да
Параметр ReFrames формата : 12 кадров
Идентификатор кодека : V_MPEG4/ISO/AVC
Продолжительность : 1 ч. 40 м.
Битрейт : 3235 Кбит/сек
Ширина : 1024 пикселя
Высота : 576 пикселей
Соотношение сторон : 16:9
Режим частоты кадров : Постоянный
Частота кадров : 23,976 (24000/1001) кадра/сек
Цветовое пространство : YUV
Субдискретизация насыщенности : 4:2:0
Битовая глубина : 8 бит
Тип развёртки : Прогрессивная
Бит/(Пиксели*Кадры) : 0.229
Размер потока : 2,22 Гбайт (78%)
Заголовок : potroks
Библиотека кодирования : x264 core 148 r2638 7599210
Настройки программы : cabac=1 / ref=12 / deblock=1:-1:-1 / analyse=0x3:0x113 / me=umh / subme=11 / psy=1 / psy_rd=0.98:0.00 / mixed_ref=1 / me_range=48 / chroma_me=1 / trellis=2 / 8x8dct=1 / cqm=0 / deadzone=21,11 / fast_pskip=0 / chroma_qp_offset=-2 / threads=9 / lookahead_threads=2 / sliced_threads=0 / nr=0 / decimate=0 / interlaced=0 / bluray_compat=0 / constrained_intra=0 / bframes=13 / b_pyramid=2 / b_adapt=2 / b_bias=0 / direct=3 / weightb=1 / open_gop=0 / weightp=2 / keyint=240 / keyint_min=23 / scenecut=40 / intra_refresh=0 / rc_lookahead=60 / rc=2pass / mbtree=0 / bitrate=3235 / ratetol=1.0 / qcomp=0.70 / qpmin=0 / qpmax=69 / qpstep=4 / cplxblur=20.0 / qblur=0.5 / vbv_maxrate=14000 / vbv_bufsize=14000 / nal_hrd=none / filler=0 / ip_ratio=1.40 / pb_ratio=1.30 / aq=1:0.80
Язык : English
Default : Да
Forced : Нет
Аудио #1
Идентификатор : 2
Формат : AC-3
Формат/Информация : Audio Coding 3
Расширение режима : CM (complete main)
Параметр Endianness формата : Big
Идентификатор кодека : A_AC3
Продолжительность : 1 ч. 40 м.
Вид битрейта : Постоянный
Битрейт : 384 Кбит/сек
Каналы : 6 каналов
Расположение каналов : Front: L C R, Side: L R, LFE
Частота : 48,0 КГц
Частота кадров : 31,250 кадров/сек (1536 spf)
Метод сжатия : С потерями
Размер потока : 277 Мбайт (9%)
Заголовок : Dub | DD 5.1 @ 384 kbps - iTunes
Язык : Russian
Default : Да
Forced : Нет
Аудио #2
Идентификатор : 3
Формат : AC-3
Формат/Информация : Audio Coding 3
Расширение режима : CM (complete main)
Параметр Endianness формата : Big
Идентификатор кодека : A_AC3
Продолжительность : 1 ч. 40 м.
Вид битрейта : Постоянный
Битрейт : 448 Кбит/сек
Каналы : 6 каналов
Расположение каналов : Front: L C R, Side: L R, LFE
Частота : 48,0 КГц
Частота кадров : 31,250 кадров/сек (1536 spf)
Метод сжатия : С потерями
Размер потока : 323 Мбайт (11%)
Заголовок : Original | DD 5.1 @ 448 kbps
Язык : English
Default : Нет
Forced : Нет
Текст #1
Идентификатор : 4
Формат : UTF-8
Идентификатор кодека : S_TEXT/UTF8
Идентификатор кодека/Информация : UTF-8 Plain Text
Заголовок : iTunes
Язык : Russian
Default : Нет
Forced : Нет
Текст #2
Идентификатор : 5
Формат : UTF-8
Идентификатор кодека : S_TEXT/UTF8
Идентификатор кодека/Информация : UTF-8 Plain Text
Заголовок : Full
Язык : English
Default : Нет
Forced : Нет
Текст #3
Идентификатор : 6
Формат : UTF-8
Идентификатор кодека : S_TEXT/UTF8
Идентификатор кодека/Информация : UTF-8 Plain Text
Заголовок : SDH
Язык : English
Default : Нет
Forced : Нет
Текст #4
Идентификатор : 7
Формат : UTF-8
Идентификатор кодека : S_TEXT/UTF8
Идентификатор кодека/Информация : UTF-8 Plain Text
Заголовок : SDH-Colored
Язык : English
Default : Нет
Forced : Нет
Меню
00:00:00.000 : en:00:00:00.000
00:09:58.848 : en:00:09:58.848
00:19:46.602 : en:00:19:46.602
00:29:15.379 : en:00:29:15.379
00:38:54.415 : en:00:38:54.415
00:49:27.131 : en:00:49:27.131
00:58:30.507 : en:00:58:30.507
01:07:49.691 : en:01:07:49.691
01:16:25.331 : en:01:16:25.331
01:24:54.464 : en:01:24:54.464
01:32:54.611 : en:01:32:54.611
01:44:37.438 : en:01:44:37.438
Трейлер
Download / Скачать

Хотите скачать бесплатно? Зарегистрируйтесь на сайте (ссылка на регистрацию). Pirat.ca - самый быстрый торрент трекер в рунете!

Как скачивать  ·   Что такое торрент  ·   Рейтинг и ограничения

putnikugra

Шкипер

Пост 06-Янв-2018 17:46 (спустя 2 часа 55 минут)

[Q] 

Смотрел его давненько, и тогда очень понравился! Рекомендую к просмотру!
[Профиль]  [ЛС] 

MikeB

Гроза морей

Пост 07-Янв-2018 20:25 (спустя 1 день 2 часа)

[Q] 

хороший не напрягающий фильмец, рекомендую
[Профиль]  [ЛС] 

a s d

Морской Волк

1

Пост 08-Янв-2018 23:20 (спустя 1 день 2 часа)

[Q] 

На любителя ..... Автору респект!!!
[Профиль]  [ЛС] 

RomanTroizk

Корсар

Пост 24-Янв-2018 21:34 (спустя 15 дней)

[Q] 

Прикольный фильмец- мне понравился
[Профиль]  [ЛС] 

Пост 09-Фев-2018 16:50 (спустя 15 дней)

Топик был перенесен из форума Новинки (HD|DVD|BD| TV|SAT|PDTV| - Rips) в форум Фильмы 2010 - 2017 г.г.
aleksey99
 

terranova

Штурман

Пост 10-Фев-2018 18:45 (спустя 16 дней)

[Q] 

Коментарии не айс
[Профиль]  [ЛС] 
Показать сообщения:    
Ответить на тему

Текущее время: Сегодня 04:29

Часовой пояс: GMT + 4



Вы не можете начинать темы
Вы не можете отвечать на сообщения
Вы не можете редактировать свои сообщения
Вы не можете удалять свои сообщения
Вы не можете голосовать в опросах
Вы не можете прикреплять файлы к сообщениям
Вы не можете скачивать файлы

Майнать ▼