Коматозники / Flatliners (Нильс Арден Оплев / Niels Arden Oplev) [2017 г., ужасы, фантастика, триллер, драма, BDRip] Dub [iTunes] + Original (Eng) + Sub (Rus)

Ответить на тему
 
Автор
Сообщение

Пост 07-Янв-2018 09:47

[Q] 

aleksey99

--Коматозники / Flatliners--«Перешёл черту? Будь готов к последствиям»-- Производство: США, Канада / Cross Creek Pictures, Furthur Films, Laurence Mark Productions, Screen Gems
Год выпуска: 2017 г.
Жанр: ужасы, фантастика, триллер, драма
Продолжительность: 01:49:46--Мировая премьера: 25 сентября 2017
Российская премьера: 23 ноября 2017, «WDSSPR»
Цифровой релиз: 07 января 2018, «Sony Pictures Home Entertainment»--Перевод: Профессиональный (полное дублирование) [iTunes]
Оригинальный аудиопоток: английский--Режиссер: Нильс Арден Оплев / Niels Arden Oplev--В ролях: Эллен Пейдж, Диего Луна, Нина Добрев, Джеймс Нортон, Кирси Клемонс, Кифер Сазерленд, Джейкоб Соли, Анна Арден Оплев, Мигель Энтони--Описание: Пятеро студентов-медиков, одержимых желанием узнать, что происходит с человеком после смерти, решаются на рискованный эксперимент: на время они останавливают друг другу сердце, чтобы погрузиться в состояние клинической смерти и на собственном опыте понять, что происходит с человеком по ту сторону. Но они забывают, что, переступив черту, нужно быть готовым к последствиям.-- --Качество видео: BDRip
Контейнер: AVI
Видео кодек: XviD
Аудио кодек: AC3
Видео: 720x304 (2.37:1), 23.976 fps, XviD build 50 ~1892 kbps avg, 0.36 bit/pixel
Аудио: 48 kHz, AC3 Dolby Digital, 3/2 (L,C,R,l,r) + LFE ch, ~384 kbps RUS
Аудио: 48 kHz, AC3 Dolby Digital, 3/2 (L,C,R,l,r) + LFE ch, ~384 kbps ENG
Cубтитры: Русские форсированные (отдельно).
Общее
Полное имя : H:\Torrent2\Komatozniki.2017.HDRip\Komatozniki.2017.HDRip.avi
Формат : AVI
Формат/Информация : Audio Video Interleave
Профиль формата : OpenDML
Размер файла : 2,05 Гбайт
Продолжительность : 1 ч. 49 м.
Общий поток : 2678 Кбит/сек
Название фильма : K0m4t03H1k1.2017.D.HdRip.21OOMB
Программа кодирования : VirtualDubMod 1.5.10.2 (build 2540/release)
Формат оригинала/Имя : Movie
Видео
Идентификатор : 0
Формат : MPEG-4 Visual
Профиль формата : Advanced [email protected]
Параметр BVOP формата : 2
Параметр QPel формата : Нет
Параметр GMC формата : Без точки перехода
Параметр матрицы формата : Default (MPEG)
Идентификатор кодека : XVID
Идентификатор кодека/Подсказка : XviD
Продолжительность : 1 ч. 49 м.
Битрейт : 1892 Кбит/сек
Ширина : 720 пикселей
Высота : 304 пикселя
Соотношение сторон : 2,35:1
Частота кадров : 23,976 (24000/1001) кадра/сек
Цветовое пространство : YUV
Субдискретизация насыщенности : 4:2:0
Битовая глубина : 8 бит
Тип развёртки : Прогрессивная
Метод сжатия : С потерями
Бит/(Пиксели*Кадры) : 0.360
Размер потока : 1,45 Гбайт (71%)
Библиотека кодирования : XviD 1.2.1 (UTC 2008-12-04)
Аудио #1
Идентификатор : 1
Формат : AC-3
Формат/Информация : Audio Coding 3
Расширение режима : CM (complete main)
Параметр Endianness формата : Big
Идентификатор кодека : 2000
Продолжительность : 1 ч. 49 м.
Вид битрейта : Постоянный
Битрейт : 384 Кбит/сек
Каналы : 6 каналов
Расположение каналов : Front: L C R, Side: L R, LFE
Частота : 48,0 КГц
Частота кадров : 31,250 кадров/сек (1536 spf)
Метод сжатия : С потерями
Размер потока : 301 Мбайт (14%)
Выравнивание : Разделение по промежуткам
Продолжительность промежутка : 42 мс. (1,00 видеокадр)
Время предзагрузки промежутка : 500 мс.
Аудио #2
Идентификатор : 2
Формат : AC-3
Формат/Информация : Audio Coding 3
Расширение режима : CM (complete main)
Параметр Endianness формата : Big
Идентификатор кодека : 2000
Продолжительность : 1 ч. 49 м.
Вид битрейта : Постоянный
Битрейт : 384 Кбит/сек
Каналы : 6 каналов
Расположение каналов : Front: L C R, Side: L R, LFE
Частота : 48,0 КГц
Частота кадров : 31,250 кадров/сек (1536 spf)
Метод сжатия : С потерями
Размер потока : 302 Мбайт (14%)
Выравнивание : Разделение по промежуткам
Продолжительность промежутка : 42 мс. (1,00 видеокадр)
Время предзагрузки промежутка : 500 мс.
Общее
Полное имя : H:\Torrent2\Komatozniki.2017.HDRip\Komatozniki.2017.HDRip.srt
Формат : SubRip
Размер файла : 648 байт
Текст
Формат : SubRip
Метод сжатия : Без потерь
Трейлер
Download / Скачать

Хотите скачать бесплатно? Зарегистрируйтесь на сайте (ссылка на регистрацию). Pirat.ca - самый быстрый торрент трекер в рунете!

Как скачивать  ·   Что такое торрент  ·   Рейтинг и ограничения

Кристина119

Гроза морей

Пост 07-Янв-2018 13:05 (спустя 3 часа)

[Q] 

Данке шон Лови бочку
[Профиль]  [ЛС] 

Wlad_UA

Штурман

Пост 07-Янв-2018 18:45 (спустя 5 часов)

[Q] 

Римейк старого фильма ? А смысл ? Раздающему спасибо за труды
[Профиль]  [ЛС] 

Gothaka

Штурман

Пост 08-Янв-2018 12:36 (спустя 17 часов)

[Q] 

Люди тоже кушать хотят
816337Римейк старого фильма ? А смысл ?
[Профиль]  [ЛС] 

Pirat177

Флибустьер

Пост 08-Янв-2018 17:49 (спустя 5 часов)

[Q] 

Раздающему спасибо Спасибо!!!
[Профиль]  [ЛС] 

RomanTroizk

Корсар

Пост 24-Янв-2018 21:36 (спустя 16 дней)

[Q] 

Гляну. Спасибо!!! Супер!
[Профиль]  [ЛС] 

VooL

Шкипер

Пост 26-Янв-2018 20:13 (спустя 1 день 22 часа)

[Q] 

фильм под пивко Лови бочку

_________________
Водку не обещаю, но погуляем на славу (с) Иван Сусанин
[Профиль]  [ЛС] 

Пост 09-Фев-2018 16:50 (спустя 13 дней)

Топик был перенесен из форума Новинки (HD|DVD|BD| TV|SAT|PDTV| - Rips) в форум Фильмы 2010 - 2017 г.г.
aleksey99
 

ketzer

Корсар

Пост 23-Фев-2018 03:21 (спустя 27 дней)

[Q] 

Подозревал, что в 2018-м с Эллен Пейдж хорошего не выйдет, и оказался прав. Для чего "сыграли" на поле шумахеровской классики, а не придумали что-то своё - непонятно. Можно не смотреть.
[Профиль]  [ЛС] 

Sharifulla

Корсар

Пост 24-Фев-2018 12:49 (спустя 1 день 9 часов)

[Q] 

Автору спасибо за труды! Лови бочку
[Профиль]  [ЛС] 

the_lame

Флибустьер

Пост 19-Май-2018 12:15 (спустя 2 месяца 22 дня)

[Q] 

Фильм, вроде, неплохой, но, по моему скромному мнению, конец просто слили.
[Профиль]  [ЛС] 
Показать сообщения:    
Ответить на тему

Текущее время: Сегодня 23:31

Часовой пояс: GMT + 4



Вы не можете начинать темы
Вы не можете отвечать на сообщения
Вы не можете редактировать свои сообщения
Вы не можете удалять свои сообщения
Вы не можете голосовать в опросах
Вы не можете прикреплять файлы к сообщениям
Вы не можете скачивать файлы

Майнать ▼