Уважаемый Гость!
Вы можете поддержать проект и зарегистрироваться у наших партнеров - онлайн-стратегия MyLands. При регистрации в игре Вы получите код, который сможете активировать после регистрации на pirat.ca и получить 1000 дублонов.

Ваш код:
682fda369db314ffc3bf18d836fce8f4c6b7be8f
 
     

Счастливого дня смерти / Happy Death Day (Кристофер Лэндон / Christopher Landon) [2017 г., ужасы, триллер, детектив, комедия, HDRip] MVOx2 [Paradox" & Omskbird records][AlexFilm]

Ответить на тему
 
Автор
Сообщение

Пост 08-Янв-2018 11:04

[Q] 

aleksey99

--Счастливого дня смерти / Happy Death Day--«Проснись. Отпразднуй день рождения. Умри. Повтори. Снова и снова...»-- Производство: США / Blumhouse Productions, Digital Riot Media, Vesuvius Productions
Год выпуска: 2017 г.
Жанр: ужасы, триллер, детектив, комедия
Продолжительность: 01:36:11--Мировая премьера: 7 октября 2017
Российская премьера: 7 декабря 2017, «UPI»--Перевод 1: Многоголосый, закадровый [AlexFilm]
Перевод 2: Многоголосый, закадровый [Paradox" & Omskbird records]--Режиссер: Кристофер Лэндон / Christopher Landon--В ролях: Джессика Рот, Израэль Бруссар, Руби Модин, Лаура Клифтон, Джейсон Бэйл, Роб Мелло, Рэйчел Мэттьюз, Ремзи Андерсон, Брэди Льюис, Фи Ву, Тени Интриаго, Блейн Керн, Кариэлла Смит, Джимми Гонсалес, Билли Слотер--Описание: Каждый в универе мечтал попасть на её день рождения, но праздник был безнадежно испорчен незнакомцем в маске, убившим виновницу торжества. Однако судьба преподнесла имениннице леденящий душу подарок — бесконечный запас жизней. И теперь у девушки появился шанс вычислить своего убийцу, ведь этот день будет повторяться снова и снова…-- --Качество видео: HDRip
Контейнер: AVI
Видео кодек: XviD
Аудио кодек: AC3
Видео: 720x302 (2.38:1), 23.976 fps, XviD MPEG-4 ~1579 kbps avg, 0.30 bit/pixel
Аудио 1: 48 kHz, AC3 Dolby Digital, 2/0 (L,R) ch, ~192 kbps [AlexFilm]
Аудио 2: 48 kHz, AC3 Dolby Digital, 2/0 (L,R) ch, ~192 kbps [Paradox" & Omskbird records]
Cубтитры: отсутствуют.
Общее
Полное имя : H:\Torrent2\Happy.Death.Day.2017.XviD.AC3.2Rus.avi
Формат : AVI
Формат/Информация : Audio Video Interleave
Размер файла : 1,33 Гбайт
Продолжительность : 1 ч. 36 м.
Общий поток : 1978 Кбит/сек
Название фильма : RARBG - Happy.Death.Day.2017.BRRip.XviD.AC3-RARBG
Программа кодирования : VirtualDubMod 1.5.10.1 (build 2366/release)
Библиотека кодирования : VirtualDubMod build 2366/release
Примечание : RARBG - Happy.Death.Day.2017.BRRip.XviD.AC3-RARBG
Видео
Идентификатор : 0
Формат : MPEG-4 Visual
Профиль формата : [email protected]
Параметр BVOP формата : Нет
Параметр QPel формата : Нет
Параметр GMC формата : Без точки перехода
Параметр матрицы формата : Default (H.263)
Идентификатор кодека : XVID
Идентификатор кодека/Подсказка : XviD
Продолжительность : 1 ч. 36 м.
Битрейт : 1580 Кбит/сек
Ширина : 720 пикселей
Высота : 302 пикселя
Соотношение сторон : 2,40:1
Частота кадров : 23,976 (24000/1001) кадра/сек
Цветовое пространство : YUV
Субдискретизация насыщенности : 4:2:0
Битовая глубина : 8 бит
Тип развёртки : Прогрессивная
Метод сжатия : С потерями
Бит/(Пиксели*Кадры) : 0.303
Размер потока : 1,06 Гбайт (80%)
Библиотека кодирования : Lavc57.107.100
Аудио #1
Идентификатор : 1
Формат : AC-3
Формат/Информация : Audio Coding 3
Идентификатор кодека : 2000
Продолжительность : 1 ч. 36 м.
Вид битрейта : Постоянный
Битрейт : 192 Кбит/сек
Каналы : 2 канала
Расположение каналов : Front: L R
Частота : 48,0 КГц
Частота кадров : 31,250 кадров/сек (1536 SPF)
Битовая глубина : 16 бит
Метод сжатия : С потерями
Размер потока : 132 Мбайт (10%)
Выравнивание : Разделение по промежуткам
Продолжительность промежутка : 42 мс. (1,00 видеокадр)
Время предзагрузки промежутка : 500 мс.
ServiceKind/String : Complete Main
Аудио #2
Идентификатор : 2
Формат : AC-3
Формат/Информация : Audio Coding 3
Идентификатор кодека : 2000
Продолжительность : 1 ч. 36 м.
Вид битрейта : Постоянный
Битрейт : 192 Кбит/сек
Каналы : 2 канала
Расположение каналов : Front: L R
Частота : 48,0 КГц
Частота кадров : 31,250 кадров/сек (1536 SPF)
Битовая глубина : 16 бит
Метод сжатия : С потерями
Размер потока : 132 Мбайт (10%)
Выравнивание : Разделение по промежуткам
Продолжительность промежутка : 42 мс. (1,00 видеокадр)
Время предзагрузки промежутка : 500 мс.
ServiceKind/String : Complete Main
Трейлер
Download / Скачать

Хотите скачать бесплатно? Зарегистрируйтесь на сайте (ссылка на регистрацию). Pirat.ca - самый быстрый торрент трекер в рунете!

Как скачивать  ·   Что такое торрент  ·   Рейтинг и ограничения

Пост 09-Фев-2018 16:50 (спустя 1 месяц 1 день)

Топик был перенесен из форума Новинки (HD|DVD|BD| TV|SAT|PDTV| - Rips) в форум Фильмы 2010 - 2017 г.г.
aleksey99
 
Показать сообщения:    
Ответить на тему

Текущее время: Сегодня 11:30

Часовой пояс: GMT + 4



Вы не можете начинать темы
Вы не можете отвечать на сообщения
Вы не можете редактировать свои сообщения
Вы не можете удалять свои сообщения
Вы не можете голосовать в опросах
Вы не можете прикреплять файлы к сообщениям
Вы не можете скачивать файлы

▼ Вниз