Звёздный десант: Предатель Марса / Starship Troopers: Traitor of Mars (Синдзи Арамаки / Shinji Aramaki) [2017 г., мультфильм, фантастика, боевик, BDRip-AVC] MVO [Лицензия] + Original (Eng) + Sub (Rus, Eng)

Ответить на тему
 
Автор
Сообщение

Пост 08-Янв-2018 14:12

[Q] 

aleksey99

--Звёздный десант: Предатель Марса / Starship Troopers: Traitor of Mars-- Производство: Япония, США / Nu Boyana Film Studios, Nu-Image Films
Год выпуска: 2017 г.
Жанр: мультфильм, фантастика, боевик
Продолжительность: 01:27:44--Перевод: Профессиональный (многоголосый, закадровый) [Лицензия]
Оригинальный аудиопоток: английский--Режиссер: Синдзи Арамаки / Shinji Aramaki, Масару Мацумото / Masaru Matsumoto--В ролях: Каспер Ван Дин, Дина Мейер, ДеРэй Дэвис, Люси Кристиан, Джастин Доран, Скотт Гиббз, Эмили Невез--Описание: На колонизированном людьми Марсе жизнь течёт мирно и спокойно. В остальной Федерации марсиан считают недалёкими, и десантник Джон Рико уже тоже начинает сомневаться в способностях своего отряда — раз за разом команда проваливает на симуляторе миссии по уничтожению колонии жуков. И когда внезапно Марс атакуют полчища уже настоящих гигантских насекомых, отряду новичков придется доказать, что марсиане способны постоять за родную планету.-- --Качество видео: BDRip-AVC
Контейнер: MKV
Видео кодек: AVC/H.264
Аудио кодек: AC3
Видео: x264, 1024x576 (16:9) 23,976 fps, ~2662 kbps, 0.188 bit/pixel
Аудио 1: 48 kHz, AC3 Dolby Digital, 3/2 (L,C,R,l,r) + LFE ch, ~448 kbps RUS
Аудио 2: 48 kHz, AC3 Dolby Digital, 3/2 (L,C,R,l,r) + LFE ch, ~448 kbps ENG
Cубтитры: русские, английские (Full + SDH + SDH-Colored).
Общее
Уникальный идентификатор : 199582650815510762276280777663639806413 (0x962638696B7338838F7FF4B51C2D61CD)
Полное имя : H:\Torrent2\Zvezdnyi.Desant.Predatel.Marsa.2017.DUAL.BDRip.x264.mkv
Формат : Matroska
Версия формата : Version 4 / Version 2
Размер файла : 2,18 Гбайт
Продолжительность : 1 ч. 27 м.
Общий поток : 3561 Кбит/сек
Название фильма : Starship Troopers: Traitor of Mars (2017)
Дата кодирования : UTC 2017-09-20 14:34:11
Программа кодирования : mkvmerge v5.9.0 ('On The Loose') built on Dec 15 2012 16:39:58
Библиотека кодирования : libebml v1.3.0 + libmatroska v1.4.0
Видео
Идентификатор : 1
Формат : AVC
Формат/Информация : Advanced Video Codec
Профиль формата : [email protected]
Настройки формата : CABAC / 12 Ref Frames
Параметр CABAC формата : Да
Параметр RefFrames формата : 12 кадров
Идентификатор кодека : V_MPEG4/ISO/AVC
Продолжительность : 1 ч. 27 м.
Битрейт : 2662 Кбит/сек
Ширина : 1024 пикселя
Высота : 576 пикселей
Соотношение сторон : 16:9
Режим частоты кадров : Постоянный
Частота кадров : 23,976 (24000/1001) кадра/сек
Цветовое пространство : YUV
Субдискретизация насыщенности : 4:2:0
Битовая глубина : 8 бит
Тип развёртки : Прогрессивная
Бит/(Пиксели*Кадры) : 0.188
Размер потока : 1,59 Гбайт (73%)
Заголовок : potroks
Библиотека кодирования : x264 core 152 r2851M ba24899
Настройки программы : cabac=1 / ref=12 / deblock=1:-1:-1 / analyse=0x3:0x132 / me=umh / subme=11 / psy=1 / psy_rd=0.96:0.00 / mixed_ref=1 / me_range=48 / chroma_me=1 / trellis=2 / 8x8dct=1 / cqm=0 / deadzone=22,11 / fast_pskip=0 / chroma_qp_offset=-2 / threads=9 / lookahead_threads=2 / sliced_threads=0 / nr=0 / decimate=0 / interlaced=0 / bluray_compat=0 / constrained_intra=0 / bframes=13 / b_pyramid=2 / b_adapt=2 / b_bias=0 / direct=3 / weightb=1 / open_gop=0 / weightp=2 / keyint=240 / keyint_min=23 / scenecut=40 / intra_refresh=0 / rc_lookahead=0 / rc=2pass / mbtree=0 / bitrate=2662 / ratetol=1.0 / qcomp=0.70 / qpmin=0 / qpmax=69 / qpstep=4 / cplxblur=20.0 / qblur=0.5 / vbv_maxrate=62500 / vbv_bufsize=44642 / nal_hrd=none / filler=0 / ip_ratio=1.40 / pb_ratio=1.30 / aq=1:0.70
Язык : English
Default : Да
Forced : Нет
Аудио #1
Идентификатор : 2
Формат : AC-3
Формат/Информация : Audio Coding 3
Идентификатор кодека : A_AC3
Продолжительность : 1 ч. 27 м.
Вид битрейта : Постоянный
Битрейт : 448 Кбит/сек
Каналы : 6 каналов
Расположение каналов : Front: L C R, Side: L R, LFE
Частота : 48,0 КГц
Частота кадров : 31,250 кадров/сек (1536 SPF)
Битовая глубина : 16 бит
Метод сжатия : С потерями
Размер потока : 281 Мбайт (13%)
Заголовок : MVO | DD 5.1 @ 448 kbps - Blu-ray EUR
Язык : Russian
ServiceKind/String : Complete Main
Default : Да
Forced : Нет
Аудио #2
Идентификатор : 3
Формат : AC-3
Формат/Информация : Audio Coding 3
Идентификатор кодека : A_AC3
Продолжительность : 1 ч. 27 м.
Вид битрейта : Постоянный
Битрейт : 448 Кбит/сек
Каналы : 6 каналов
Расположение каналов : Front: L C R, Side: L R, LFE
Частота : 48,0 КГц
Частота кадров : 31,250 кадров/сек (1536 SPF)
Битовая глубина : 16 бит
Метод сжатия : С потерями
Размер потока : 281 Мбайт (13%)
Заголовок : Original | DD 5.1 @ 448 kbps
Язык : English
ServiceKind/String : Complete Main
Default : Нет
Forced : Нет
Текст #1
Идентификатор : 4
Формат : UTF-8
Идентификатор кодека : S_TEXT/UTF8
Идентификатор кодека/Информация : UTF-8 Plain Text
Заголовок : iTunes
Язык : Russian
Default : Нет
Forced : Нет
Текст #2
Идентификатор : 5
Формат : UTF-8
Идентификатор кодека : S_TEXT/UTF8
Идентификатор кодека/Информация : UTF-8 Plain Text
Заголовок : Full
Язык : English
Default : Нет
Forced : Нет
Текст #3
Идентификатор : 6
Формат : UTF-8
Идентификатор кодека : S_TEXT/UTF8
Идентификатор кодека/Информация : UTF-8 Plain Text
Заголовок : SDH
Язык : English
Default : Нет
Forced : Нет
Текст #4
Идентификатор : 7
Формат : UTF-8
Идентификатор кодека : S_TEXT/UTF8
Идентификатор кодека/Информация : UTF-8 Plain Text
Заголовок : SDH-Colored
Язык : English
Default : Нет
Forced : Нет
Меню
00:00:00.000 : en:(01)00:00:00:000
00:06:52.786 : en:(02)00:06:52:786
00:11:49.165 : en:(03)00:11:49:165
00:15:55.828 : en:(04)00:15:55:828
00:22:11.078 : en:(05)00:22:11:078
00:28:16.277 : en:(06)00:28:16:277
00:34:40.119 : en:(07)00:34:40:119
00:38:02.027 : en:(08)00:38:02:027
00:41:06.463 : en:(09)00:41:06:463
00:51:04.478 : en:(10)00:51:04:478
00:56:53.242 : en:(11)00:56:53:242
01:02:22.280 : en:(12)01:02:22:280
01:06:19.934 : en:(13)01:06:19:934
01:13:16.100 : en:(14)01:13:16:100
01:18:19.985 : en:(15)01:18:19:985
01:22:40.872 : en:(16)01:22:40:872
Трейлер
Download / Скачать

Хотите скачать бесплатно? Зарегистрируйтесь на сайте (ссылка на регистрацию). Pirat.ca - самый быстрый торрент трекер в рунете!

Как скачивать  ·   Что такое торрент  ·   Рейтинг и ограничения

Shpok

Шкипер

Пост 12-Янв-2018 00:45 (спустя 3 дня)

[Q] 

123 раза скачали и ни одного отзыва....
[Профиль]  [ЛС] 

westbam

Морской Волк

6

Пост 12-Янв-2018 02:17 (спустя 1 час 31 минута)

[Q] 

816543123 раза скачали и ни одного отзыва....
они под впечатлением таким что отняло руки....

_________________
[Профиль]  [ЛС] 

Un73100

Штурман

Пост 12-Янв-2018 16:04 (спустя 13 часов)

[Q] 

По накалу идиотизма,ещё лучше чем SW,а так,думаю,малолетним [цензура] 5+ зайдёт.
!Слепой Пью писал(а):

Мат! Бан на месяц!
[Профиль]  [ЛС] 

StenST

Корсар

Пост 13-Янв-2018 00:04 (спустя 8 часов)

[Q] 

816546
816543123 раза скачали и ни одного отзыва....
они под впечатлением таким что отняло руки....
Какое отняло? это не тот жанр... там не +18 ad
[Профиль]  [ЛС] 

kirill_21121

Лоцман

Пост 15-Янв-2018 19:19 (спустя 2 дня 19 часов)

[Q] 

Эхх!!Я то думал тот самый "Звездный десант"...Даже качать не стал..
[Профиль]  [ЛС] 

Aleks44

Гроза морей

Пост 18-Янв-2018 21:56 (спустя 3 дня)

[Q] 

На вкус и цвет, мне мульт понравился
[Профиль]  [ЛС] 

Пост 09-Фев-2018 16:50 (спустя 21 день)

Топик был перенесен из форума Новинки (HD|DVD|BD| TV|SAT|PDTV| - Rips) в форум Фильмы 2010 - 2017 г.г.
aleksey99
 

Прораб

Легенда

Пост 03-Мар-2018 18:58 (спустя 1 месяц 15 дней)

[Q] 

Лажа какаято!! Просто пипец, слов нет!
[Профиль]  [ЛС] 
Показать сообщения:    
Ответить на тему

Текущее время: Сегодня 04:35

Часовой пояс: GMT + 4



Вы не можете начинать темы
Вы не можете отвечать на сообщения
Вы не можете редактировать свои сообщения
Вы не можете удалять свои сообщения
Вы не можете голосовать в опросах
Вы не можете прикреплять файлы к сообщениям
Вы не можете скачивать файлы

Майнать ▼