Пурга (Игорь Зайцев) [2017 г., комедия, WEB-DLRip] Original (RUS)

Ответить на тему
 
Автор
Сообщение

Пост 08-Янв-2018 19:55

[Q] 

aleksey99

--Пурга--«Любовь, как и стихийное бедствие, предугадать нельзя»-- Производство: Россия, ЗАО «Дирекция Кино»
Год выпуска: 2017 г.
Жанр: комедия
Продолжительность: 01:31:37--Российская премьера: 7 января 2018--Режиссер: Игорь Зайцев--В ролях: Виктор Хориняк, Александра Тюфтей, Юлия Ковалёва, Роман Мадянов, Ростислав Бершауэр, Михаил Евланов, Максим Литовченко, Максим Битюков, Наталья Рычкова, Людмила Полякова, Нелли Неведина, Ирина Бякова, Виктор Супрун, Сергей Шеховцов, Денис Филимонов, Евгений Мундум, Юрий Ваксман--Описание: Оперативник криминальной полиции Женя Никифоров однажды сделал выбор между долгом и чувством. Спустя год Женя не может решить, что же правильней — быть честным по любви или счастливым по расчету? В канун нового года его случайный знакомый Дед Мороз дает ему весьма необычный совет искупаться в снегу и загадать желание. Оно непременно исполнится, но при одном условии — нужно, как в детстве, точно знать, чего ты на самом деле хочешь.-- --Качество видео: WEB-DLRip
Контейнер: AVI
Видео кодек: XviD
Аудио кодек: AC3
Видео: 720x400 (1.80:1), 25 fps, XviD build 73 ~1913 kbps avg, 0.27 bit/pixel
Аудио: 48 kHz, AC3 Dolby Digital, 2/0 (L,R) ch, ~192 kbps
Cубтитры: отсутствуют
Общее
Полное имя : H:\Torrent2\Пурга,2017.WEB-DLRip.avi
Формат : AVI
Формат/Информация : Audio Video Interleave
Размер файла : 1,37 Гбайт
Продолжительность : 1 ч. 32 м.
Общий поток : 2116 Кбит/сек
Программа кодирования : VirtualDubMod 1.5.10.3 | www.virtualdub-fr.org || (build 2550/release)
Библиотека кодирования : VirtualDubMod build 2550/release
Видео
Идентификатор : 0
Формат : MPEG-4 Visual
Профиль формата : Advanced [email protected]
Настройки формата : BVOP1 / Custom Matrix
Параметр BVOP формата : 1
Параметр QPel формата : Нет
Параметр GMC формата : Без точки перехода
Параметр матрицы формата : Выборочная
Идентификатор кодека : XVID
Идентификатор кодека/Подсказка : XviD
Продолжительность : 1 ч. 32 м.
Битрейт : 1914 Кбит/сек
Ширина : 720 пикселей
Высота : 400 пикселей
Соотношение сторон : 16:9
Частота кадров : 25,000 кадров/сек
Цветовое пространство : YUV
Субдискретизация насыщенности : 4:2:0
Битовая глубина : 8 бит
Тип развёртки : Прогрессивная
Метод сжатия : С потерями
Бит/(Пиксели*Кадры) : 0.266
Размер потока : 1,24 Гбайт (90%)
Библиотека кодирования : XviD 73
Аудио
Идентификатор : 1
Формат : AC-3
Формат/Информация : Audio Coding 3
Идентификатор кодека : 2000
Продолжительность : 1 ч. 32 м.
Вид битрейта : Постоянный
Битрейт : 192 Кбит/сек
Каналы : 2 канала
Расположение каналов : Front: L R
Частота : 48,0 КГц
Частота кадров : 31,250 кадров/сек (1536 SPF)
Битовая глубина : 16 бит
Метод сжатия : С потерями
Размер потока : 127 Мбайт (9%)
Выравнивание : Разделение по промежуткам
Продолжительность промежутка : 40 мс. (1,00 видеокадр)
Время предзагрузки промежутка : 500 мс.
ServiceKind/String : Complete Main
Download / Скачать

Хотите скачать бесплатно? Зарегистрируйтесь на сайте (ссылка на регистрацию). Pirat.ca - самый быстрый торрент трекер в рунете!

Как скачивать  ·   Что такое торрент  ·   Рейтинг и ограничения

clark

Флибустьер

Пост 08-Янв-2018 23:36 (спустя 3 часа)

[Q] 

оперативно спасибо!!!

_________________
Последним смеётся тот, кто стреляет первым.
[Профиль]  [ЛС] 

alex198408

Корсар

Пост 09-Янв-2018 13:49 (спустя 14 часов)

[Q] 

Понравился фильм Лови бочку
[Профиль]  [ЛС] 

vasdas

Корсар

Пост 14-Янв-2018 02:20 (спустя 4 дня)

[Q] 

мне тоже понравилось Раздающему респект! хорошее, легкое кино
[Профиль]  [ЛС] 

grosboy

Гроза морей

Пост 14-Янв-2018 12:16 (спустя 9 часов)

[Q] 

Хороший фильм добрый, позитивный рекомендую для просмотра со второй половинкой.

_________________
Щастье есть - его не может не быть...
[Профиль]  [ЛС] 

qwers1

Шкипер

Пост 14-Янв-2018 21:37 (спустя 9 часов)

[Q] 

Для женской аудитории больше,позитивный фильм. Автору респект!!!
[Профиль]  [ЛС] 

a s d

Морской Волк

1

Пост 15-Янв-2018 00:52 (спустя 3 часа)

[Q] 

сопли русского кино!
[Профиль]  [ЛС] 

Пост 09-Фев-2018 16:52 (спустя 25 дней)

Топик был перенесен из форума Новинки (HD|DVD|BD| TV|SAT|PDTV| - Rips) в форум Российские фильмы
aleksey99
 

tilebok

Корсар

Пост 24-Мар-2018 09:00 (спустя 2 месяца 9 дней)

[Q] 

есть смысл качать?
[Профиль]  [ЛС] 
Показать сообщения:    
Ответить на тему

Текущее время: Сегодня 15:22

Часовой пояс: GMT + 4



Вы не можете начинать темы
Вы не можете отвечать на сообщения
Вы не можете редактировать свои сообщения
Вы не можете удалять свои сообщения
Вы не можете голосовать в опросах
Вы не можете прикреплять файлы к сообщениям
Вы не можете скачивать файлы

Майнать ▼