Форма воды / The Shape of Water (Гильермо дель Торо / Guillermo del Toro) [2017 г., ужасы, фэнтези, триллер, драма, мелодрама, приключения, DVDSCr] MVO [@MUZOBOZ@]

Ответить на тему
 
Автор
Сообщение

Пост 08-Янв-2018 21:46

[Q] 

aleksey99

--Форма воды / The Shape of Water--«Based on an idea by Daniel Kraus And Guillermo del Toro»-- Производство: Канада, США / Fox Searchlight Pictures
Год выпуска: 2017 г.
Жанр: ужасы, фэнтези, триллер, драма, мелодрама, приключения
Продолжительность: 02:03:58--Мировая премьера: 31 августа 2017
Российская премьера: 18 января 2018, «Двадцатый Век Фокс СНГ»--Перевод: многоголосый, закадровый [@MUZOBOZ@]--Режиссер: Гильермо дель Торо / Guillermo del Toro--В ролях: Салли Хокинс, Майкл Шеннон, Ричард Дженкинс, Октавия Спенсер, Майкл Стулбарг, Даг Джонс, Дэвид Хьюлетт, Ник Сирси, Стюарт Арнотт, Найджел Беннетт--Описание: Действие разворачивается в 1963 году. Главная героиня — немая уборщица в научной лаборатории. В стенах секретного учреждения идёт работа по изучению отловленного человека-амфибии. Женщина влюбляется в мутанта и помогает ему бежать…-- --Качество видео: DVDSCr
Контейнер: AVI
Видео кодек: XviD
Аудио кодек: AC3
Видео: 720x384 (1.88:1), 23.976 fps, XviD build 50 ~1376 kbps avg, 0.21 bit/pixel
Аудио: 48 kHz, AC3 Dolby Digital, 2/0 (L,R) ch, ~192 kbps
Cубтитры: отсутствуют.
Общее
Полное имя : H:\Torrent2\The.Shape.of.Water.2017.P.DVDScr.14OOMB.avi
Формат : AVI
Формат/Информация : Audio Video Interleave
Размер файла : 1,37 Гбайт
Продолжительность : 2 ч. 3 м.
Общий поток : 1578 Кбит/сек
Программа кодирования : VirtualDubMod 1.5.10.2 (build 2540/release)
Библиотека кодирования : VirtualDubMod build 2540/release
Видео
Идентификатор : 0
Формат : MPEG-4 Visual
Профиль формата : Advanced Simple@L5
Настройки формата : BVOP2
Параметр BVOP формата : 2
Параметр QPel формата : Нет
Параметр GMC формата : Без точки перехода
Параметр матрицы формата : Default (MPEG)
Идентификатор кодека : XVID
Идентификатор кодека/Подсказка : XviD
Продолжительность : 2 ч. 3 м.
Битрейт : 1377 Кбит/сек
Ширина : 720 пикселей
Высота : 384 пикселя
Соотношение сторон : 1,85:1
Частота кадров : 23,976 (24000/1001) кадра/сек
Цветовое пространство : YUV
Субдискретизация насыщенности : 4:2:0
Битовая глубина : 8 бит
Тип развёртки : Прогрессивная
Метод сжатия : С потерями
Бит/(Пиксели*Кадры) : 0.208
Размер потока : 1,19 Гбайт (87%)
Библиотека кодирования : XviD 1.2.1 (UTC 2008-12-04)
Аудио
Идентификатор : 1
Формат : AC-3
Формат/Информация : Audio Coding 3
Идентификатор кодека : 2000
Продолжительность : 2 ч. 3 м.
Вид битрейта : Постоянный
Битрейт : 192 Кбит/сек
Каналы : 2 канала
Расположение каналов : Front: L R
Частота : 48,0 КГц
Частота кадров : 31,250 кадров/сек (1536 SPF)
Битовая глубина : 16 бит
Метод сжатия : С потерями
Размер потока : 170 Мбайт (12%)
Выравнивание : Разделение по промежуткам
Продолжительность промежутка : 42 мс. (1,00 видеокадр)
Время предзагрузки промежутка : 500 мс.
ServiceKind/String : Complete Main
Трейлер
Download / Скачать

Хотите скачать бесплатно? Зарегистрируйтесь на сайте (ссылка на регистрацию). Pirat.ca - самый быстрый торрент трекер в рунете!

Как скачивать  ·   Что такое торрент  ·   Рейтинг и ограничения

Apostle358

Флибустьер

168

Пост 12-Янв-2018 06:48 (спустя 3 дня)

[Q] 

Человек-амфибия 1961 года на новый лад. Ожидал большего. 6/10
[Профиль]  [ЛС] 

ГИППАРРД

Корсар

2

Пост 13-Янв-2018 17:07 (спустя 1 день 10 часов)

[Q] 

Возвращение морского дьявола!!!!!
[Профиль]  [ЛС] 

raul kurochka

Флибустьер

Пост 16-Янв-2018 23:34 (спустя 3 дня)

[Q] 

Смесь Ихтиандра и Амели)))

_________________
...ЧО ТАКОЙ СЕРЬЕЗНЫЙ???
[Профиль]  [ЛС] 

ketzer

Корсар

Пост 17-Янв-2018 07:40 (спустя 8 часов)

[Q] 

Очень хороший фильм! "Настоящий дель Торо", сказка для взрослых, жестокая и красивая.
[Профиль]  [ЛС] 
Показать сообщения:    
Ответить на тему

Текущее время: Сегодня 00:58

Часовой пояс: GMT + 4



Вы не можете начинать темы
Вы не можете отвечать на сообщения
Вы не можете редактировать свои сообщения
Вы не можете удалять свои сообщения
Вы не можете голосовать в опросах
Вы не можете прикреплять файлы к сообщениям
Вы не можете скачивать файлы

Майнать ▼