Живое / Life (Даниэль Эспиноса / Daniel Espinosa) [2017 г., ужасы, фантастика, триллер, BDRip-AVC] Dub [Лицензия] + Original (Eng) + Sub (Rus, Eng)

Ответить на тему
 
Автор
Сообщение

Пост 09-Янв-2018 08:39

[Q] 

aleksey99

--Живое / Life--«Умное. Сильное. Бездушное»-- Производство: США / Columbia Pictures, Skydance Productions, Sony Pictures Entertainment (SPE).
Год выпуска: 2017 г.
Жанр: ужасы, фантастика, триллер
Продолжительность: 01:43:58--Мировая премьера: 18 марта 2017
Российская премьера: 23 марта 2017, «WDSSPR»
Цифровой релиз: 20 июня 2017, «Sony Pictures Home Entertainment»--Перевод: Профессиональный (полное дублирование) [Лицензия]
Оригинальный аудиопоток: английский--Режиссер: Даниэль Эспиноса / Daniel Espinosa--В ролях: Джейк Джилленхол, Ребекка Фергюсон, Райан Рейнольдс, Ольга Дыховичная, Эрион Бакаре, Хироюки Санада, Наоко Мори, Хиу Ун-Син--Описание: Группа исследователей с международного космического корабля обнаруживает жизнь на Марсе. Они еще не подозревают, какие события повлечет за собой их открытие.-- --Качество видео: BDRip-AVC
Контейнер: MKV
Видео кодек: AVC/H.264
Аудио кодек: AC3
Видео: x264, 1088x456 (2,40:1) 23,976 fps, ~2105 kbps, 0.177 bit/pixel
Аудио 1: 48 kHz, AC3 Dolby Digital, 3/2 (L,C,R,l,r) + LFE ch, ~448 kbps RUS
Аудио 2: 48 kHz, AC3 Dolby Digital, 3/2 (L,C,R,l,r) + LFE ch, ~448 kbps ENG
Cубтитры: русские (полные + форс.), английские (Full + SDH + SDH-Colored).
Общее
Уникальный идентификатор : 214806581143242514621199042876481696335 (0xA19A3E20C4F8FCADB41E25AE2097724F)
Полное имя : H:\Torrent2\Zhyvoe.2017.DUAL.BDRip.x264.mkv
Формат : Matroska
Версия формата : Version 4 / Version 2
Размер файла : 2,18 Гбайт
Продолжительность : 1 ч. 43 м.
Общий поток : 3003 Кбит/сек
Название фильма : Life (2017)
Дата кодирования : UTC 2017-08-03 10:58:17
Программа кодирования : mkvmerge v5.9.0 ('On The Loose') built on Dec 15 2012 16:39:58
Библиотека кодирования : libebml v1.3.0 + libmatroska v1.4.0
Видео
Идентификатор : 1
Формат : AVC
Формат/Информация : Advanced Video Codec
Профиль формата : [email protected]
Настройки формата : CABAC / 10 Ref Frames
Параметр CABAC формата : Да
Параметр RefFrames формата : 10 кадров
Идентификатор кодека : V_MPEG4/ISO/AVC
Продолжительность : 1 ч. 43 м.
Битрейт : 2105 Кбит/сек
Ширина : 1088 пикселей
Высота : 456 пикселей
Соотношение сторон : 2,40:1
Режим частоты кадров : Постоянный
Частота кадров : 23,976 (24000/1001) кадра/сек
Цветовое пространство : YUV
Субдискретизация насыщенности : 4:2:0
Битовая глубина : 8 бит
Тип развёртки : Прогрессивная
Бит/(Пиксели*Кадры) : 0.177
Размер потока : 1,49 Гбайт (68%)
Заголовок : potroks
Библиотека кодирования : x264 core 152 r2851M ba24899
Настройки программы : cabac=1 / ref=10 / deblock=1:-3:-3 / analyse=0x3:0x132 / me=umh / subme=11 / psy=1 / psy_rd=0.98:0.00 / mixed_ref=1 / me_range=48 / chroma_me=1 / trellis=2 / 8x8dct=1 / cqm=0 / deadzone=21,11 / fast_pskip=0 / chroma_qp_offset=-2 / threads=9 / lookahead_threads=2 / sliced_threads=0 / nr=0 / decimate=0 / interlaced=0 / bluray_compat=0 / constrained_intra=0 / bframes=11 / b_pyramid=2 / b_adapt=2 / b_bias=0 / direct=3 / weightb=1 / open_gop=0 / weightp=2 / keyint=240 / keyint_min=23 / scenecut=40 / intra_refresh=0 / rc_lookahead=0 / rc=2pass / mbtree=0 / bitrate=2105 / ratetol=1.0 / qcomp=0.70 / qpmin=0 / qpmax=69 / qpstep=4 / cplxblur=20.0 / qblur=0.5 / vbv_maxrate=62500 / vbv_bufsize=44642 / nal_hrd=none / filler=0 / ip_ratio=1.40 / pb_ratio=1.30 / aq=1:0.80
Язык : English
Default : Да
Forced : Нет
Аудио #1
Идентификатор : 2
Формат : AC-3
Формат/Информация : Audio Coding 3
Идентификатор кодека : A_AC3
Продолжительность : 1 ч. 43 м.
Вид битрейта : Постоянный
Битрейт : 448 Кбит/сек
Каналы : 6 каналов
Расположение каналов : Front: L C R, Side: L R, LFE
Частота : 48,0 КГц
Частота кадров : 31,250 кадров/сек (1536 SPF)
Битовая глубина : 16 бит
Метод сжатия : С потерями
Размер потока : 333 Мбайт (15%)
Заголовок : Dub | DD 5.1 @ 448 kbps - Blu-ray EUR
Язык : Russian
ServiceKind/String : Complete Main
Default : Да
Forced : Нет
Аудио #2
Идентификатор : 3
Формат : AC-3
Формат/Информация : Audio Coding 3
Идентификатор кодека : A_AC3
Продолжительность : 1 ч. 43 м.
Вид битрейта : Постоянный
Битрейт : 448 Кбит/сек
Каналы : 6 каналов
Расположение каналов : Front: L C R, Side: L R, LFE
Частота : 48,0 КГц
Частота кадров : 31,250 кадров/сек (1536 SPF)
Битовая глубина : 16 бит
Метод сжатия : С потерями
Размер потока : 333 Мбайт (15%)
Заголовок : Original | DD 5.1 @ 448 kbps
Язык : English
ServiceKind/String : Complete Main
Default : Нет
Forced : Нет
Текст #1
Идентификатор : 4
Формат : UTF-8
Идентификатор кодека : S_TEXT/UTF8
Идентификатор кодека/Информация : UTF-8 Plain Text
Заголовок : Forced
Язык : Russian
Default : Да
Forced : Нет
Текст #2
Идентификатор : 5
Формат : UTF-8
Идентификатор кодека : S_TEXT/UTF8
Идентификатор кодека/Информация : UTF-8 Plain Text
Заголовок : iTunes
Язык : Russian
Default : Нет
Forced : Нет
Текст #3
Идентификатор : 6
Формат : UTF-8
Идентификатор кодека : S_TEXT/UTF8
Идентификатор кодека/Информация : UTF-8 Plain Text
Заголовок : Full
Язык : English
Default : Нет
Forced : Нет
Текст #4
Идентификатор : 7
Формат : UTF-8
Идентификатор кодека : S_TEXT/UTF8
Идентификатор кодека/Информация : UTF-8 Plain Text
Заголовок : SDH
Язык : English
Default : Нет
Forced : Нет
Текст #5
Идентификатор : 8
Формат : UTF-8
Идентификатор кодека : S_TEXT/UTF8
Идентификатор кодека/Информация : UTF-8 Plain Text
Заголовок : SDH-Colored
Язык : English
Default : Нет
Forced : Нет
Меню #1
00:00:00.000 : :(01)00:00:00:000
00:09:32.863 : :(02)00:09:32:863
00:13:13.083 : :(03)00:13:13:083
00:15:36.894 : :(04)00:15:36:894
00:19:35.340 : :(05)00:19:35:340
00:24:57.454 : :(06)00:24:57:454
00:34:36.991 : :(07)00:34:36:991
00:40:45.109 : :(08)00:40:45:109
00:43:59.303 : :(09)00:43:59:303
00:52:21.805 : :(10)00:52:21:805
00:58:33.927 : :(11)00:58:33:927
01:06:37.785 : :(12)01:06:37:785
01:11:43.257 : :(13)01:11:43:257
01:17:50.874 : :(14)01:17:50:874
01:22:39.621 : :(15)01:22:39:621
01:28:34.309 : :(16)01:28:34:309
Меню #2
00:00:00.000 : :(01)00:00:00:000
00:09:32.863 : :(02)00:09:32:863
00:13:13.083 : :(03)00:13:13:083
00:15:36.894 : :(04)00:15:36:894
00:19:35.340 : :(05)00:19:35:340
00:24:57.454 : :(06)00:24:57:454
00:34:36.991 : :(07)00:34:36:991
00:40:45.109 : :(08)00:40:45:109
00:43:59.303 : :(09)00:43:59:303
00:52:21.805 : :(10)00:52:21:805
00:58:33.927 : :(11)00:58:33:927
01:06:37.785 : :(12)01:06:37:785
01:11:43.257 : :(13)01:11:43:257
01:17:50.874 : :(14)01:17:50:874
01:22:39.621 : :(15)01:22:39:621
01:28:34.309 : :(16)01:28:34:309
Трейлер
Download / Скачать

Хотите скачать бесплатно? Зарегистрируйтесь на сайте (ссылка на регистрацию). Pirat.ca - самый быстрый торрент трекер в рунете!

Как скачивать  ·   Что такое торрент  ·   Рейтинг и ограничения

slydes

Штурман

Пост 12-Янв-2018 20:50 (спустя 3 дня)

[Q] 

Спасибо! Посмотрим!
[Профиль]  [ЛС] 

Pirat177

Флибустьер

Пост 14-Янв-2018 15:52 (спустя 1 день 19 часов)

[Q] 

Гляну на досуге... Спасибо!!!
[Профиль]  [ЛС] 

exelero07

Гроза морей

Пост 07-Мар-2018 00:25 (спустя 1 месяц 23 дня)

[Q] 

Неплохая фантастика. Держит в напряжении.
На форуме  [Профиль]  [ЛС] 
Показать сообщения:    
Ответить на тему

Текущее время: Сегодня 22:35

Часовой пояс: GMT + 4



Вы не можете начинать темы
Вы не можете отвечать на сообщения
Вы не можете редактировать свои сообщения
Вы не можете удалять свои сообщения
Вы не можете голосовать в опросах
Вы не можете прикреплять файлы к сообщениям
Вы не можете скачивать файлы

Майнать ▼