Коматозники / Flatliners (Нильс Арден Оплев / Niels Arden Oplev) [2017 г., ужасы, фантастика, триллер, драма, BDRip-AVC] Dub [iTunes] + Original (Eng) + Sub (Rus, Eng)

Ответить на тему
 
Автор
Сообщение

Пост 09-Янв-2018 10:54

[Q] 

aleksey99

--Коматозники / Flatliners--«Перешёл черту? Будь готов к последствиям»-- Производство: США, Канада / Cross Creek Pictures, Furthur Films, Laurence Mark Productions, Screen Gems
Год выпуска: 2017 г.
Жанр: ужасы, фантастика, триллер, драма
Продолжительность: 01:49:46--Мировая премьера: 25 сентября 2017
Российская премьера: 23 ноября 2017, «WDSSPR»
Цифровой релиз: 07 января 2018, «Sony Pictures Home Entertainment»--Перевод: Профессиональный (полное дублирование) [iTunes]
Оригинальный аудиопоток: английский--Режиссер: Нильс Арден Оплев / Niels Arden Oplev--В ролях: Эллен Пейдж, Диего Луна, Нина Добрев, Джеймс Нортон, Кирси Клемонс, Кифер Сазерленд, Джейкоб Соли, Анна Арден Оплев, Мигель Энтони--Описание: Пятеро студентов-медиков, одержимых желанием узнать, что происходит с человеком после смерти, решаются на рискованный эксперимент: на время они останавливают друг другу сердце, чтобы погрузиться в состояние клинической смерти и на собственном опыте понять, что происходит с человеком по ту сторону. Но они забывают, что, переступив черту, нужно быть готовым к последствиям.-- --Качество видео: BDRip-AVC
Контейнер: MKV
Видео кодек: AVC/H.264
Аудио кодек: AC3
Видео: AVC, 1040x434 (2.40:1), 2 500 kbps, 23,976 fps, 0,231 bpp
Аудио: 48 kHz, AC3 Dolby Digital, 3/2 (L,C,R,l,r) + LFE ch, ~384 kbps RUS
Аудио: 48 kHz, AC3 Dolby Digital, 3/2 (L,C,R,l,r) + LFE ch, ~384 kbps ENG
Cубтитры: Русские (forced, full), Английские.
Общее
Уникальный идентификатор : 212927770894433174529760612760131520590 (0xA03065A182F7F883546052AABAA8C84E)
Полное имя : H:\Torrent2\Flatliners.2017.BDRip-AVC.and77200.mkv
Формат : Matroska
Версия формата : Version 4 / Version 2
Размер файла : 2,48 Гбайт
Продолжительность : 1 ч. 49 м.
Общий поток : 3235 Кбит/сек
Дата кодирования : UTC 2018-01-08 16:04:39
Программа кодирования : mkvmerge v19.0.0 ('Brave Captain') 64-bit
Библиотека кодирования : libebml v1.3.5 + libmatroska v1.4.8
Видео
Идентификатор : 1
Формат : AVC
Формат/Информация : Advanced Video Codec
Профиль формата : [email protected]
Настройки формата : CABAC / 9 Ref Frames
Параметр CABAC формата : Да
Параметр RefFrames формата : 9 кадров
Идентификатор кодека : V_MPEG4/ISO/AVC
Продолжительность : 1 ч. 49 м.
Битрейт : 2500 Кбит/сек
Ширина : 1040 пикселей
Высота : 434 пикселя
Соотношение сторон : 2,40:1
Режим частоты кадров : Постоянный
Частота кадров : 23,976 (24000/1001) кадра/сек
Цветовое пространство : YUV
Субдискретизация насыщенности : 4:2:0
Битовая глубина : 8 бит
Тип развёртки : Прогрессивная
Бит/(Пиксели*Кадры) : 0.231
Размер потока : 1,89 Гбайт (76%)
Библиотека кодирования : x264 core 155 r2893M b00bcaf
Настройки программы : cabac=1 / ref=9 / deblock=1:-1:-1 / analyse=0x3:0x133 / me=umh / subme=11 / psy=1 / psy_rd=1.05:0.15 / mixed_ref=1 / me_range=32 / chroma_me=1 / trellis=2 / 8x8dct=1 / cqm=0 / deadzone=21,11 / fast_pskip=0 / chroma_qp_offset=-3 / threads=5 / lookahead_threads=1 / sliced_threads=0 / nr=0 / decimate=1 / interlaced=0 / bluray_compat=0 / constrained_intra=0 / bframes=6 / b_pyramid=2 / b_adapt=2 / b_bias=0 / direct=3 / weightb=1 / open_gop=0 / weightp=2 / keyint=240 / keyint_min=24 / scenecut=40 / intra_refresh=0 / rc_lookahead=60 / rc=abr / mbtree=1 / bitrate=2500 / ratetol=1.0 / qcomp=0.70 / qpmin=3 / qpmax=69 / qpstep=4 / ip_ratio=1.40 / aq=2:1.00
Язык : English
Default : Да
Forced : Нет
Аудио #1
Идентификатор : 2
Формат : AC-3
Формат/Информация : Audio Coding 3
Идентификатор кодека : A_AC3
Продолжительность : 1 ч. 49 м.
Вид битрейта : Постоянный
Битрейт : 384 Кбит/сек
Каналы : 6 каналов
Расположение каналов : Front: L C R, Side: L R, LFE
Частота : 48,0 КГц
Частота кадров : 31,250 кадров/сек (1536 SPF)
Битовая глубина : 16 бит
Метод сжатия : С потерями
Размер потока : 301 Мбайт (12%)
Заголовок : iTunes
Язык : Russian
ServiceKind/String : Complete Main
Default : Да
Forced : Нет
Аудио #2
Идентификатор : 3
Формат : AC-3
Формат/Информация : Audio Coding 3
Идентификатор кодека : A_AC3
Продолжительность : 1 ч. 49 м.
Вид битрейта : Постоянный
Битрейт : 384 Кбит/сек
Каналы : 6 каналов
Расположение каналов : Front: L C R, Side: L R, LFE
Частота : 48,0 КГц
Частота кадров : 31,250 кадров/сек (1536 SPF)
Битовая глубина : 16 бит
Метод сжатия : С потерями
Размер потока : 302 Мбайт (12%)
Язык : English
ServiceKind/String : Complete Main
Default : Нет
Forced : Нет
Текст #1
Идентификатор : 4
Формат : UTF-8
Идентификатор кодека : S_TEXT/UTF8
Идентификатор кодека/Информация : UTF-8 Plain Text
Продолжительность : 1 ч. 47 м.
Битрейт : 0 бит/сек
ElementCount : 10
Размер потока : 473 байт (0%)
Заголовок : Forced
Язык : Russian
Default : Да
Forced : Нет
Текст #2
Идентификатор : 5
Формат : UTF-8
Идентификатор кодека : S_TEXT/UTF8
Идентификатор кодека/Информация : UTF-8 Plain Text
Продолжительность : 1 ч. 47 м.
Битрейт : 75 бит/сек
ElementCount : 1244
Размер потока : 59,4 Кбайт (0%)
Заголовок : Full
Язык : Russian
Default : Нет
Forced : Нет
Текст #3
Идентификатор : 6
Формат : UTF-8
Идентификатор кодека : S_TEXT/UTF8
Идентификатор кодека/Информация : UTF-8 Plain Text
Продолжительность : 1 ч. 43 м.
Битрейт : 47 бит/сек
ElementCount : 1241
Размер потока : 36,1 Кбайт (0%)
Заголовок : Full
Язык : English
Default : Нет
Forced : Нет
Текст #4
Идентификатор : 7
Формат : UTF-8
Идентификатор кодека : S_TEXT/UTF8
Идентификатор кодека/Информация : UTF-8 Plain Text
Продолжительность : 1 ч. 46 м.
Битрейт : 59 бит/сек
ElementCount : 1693
Размер потока : 46,5 Кбайт (0%)
Заголовок : SDH
Язык : English
Default : Нет
Forced : Нет
Меню
00:00:00.000 : en:00:00:00.000
00:05:48.557 : en:00:05:48.557
00:11:21.097 : en:00:11:21.097
00:18:01.205 : en:00:18:01.205
00:26:41.600 : en:00:26:41.600
00:35:10.734 : en:00:35:10.734
00:42:31.382 : en:00:42:31.382
00:48:10.971 : en:00:48:10.971
00:55:32.621 : en:00:55:32.621
01:03:49.993 : en:01:03:49.993
01:09:43.262 : en:01:09:43.262
01:16:20.868 : en:01:16:20.868
01:24:18.011 : en:01:24:18.011
01:30:00.186 : en:01:30:00.186
01:36:06.094 : en:01:36:06.094
01:41:54.692 : en:01:41:54.692
Трейлер
Download / Скачать

Хотите скачать бесплатно? Зарегистрируйтесь на сайте (ссылка на регистрацию). Pirat.ca - самый быстрый торрент трекер в рунете!

Как скачивать  ·   Что такое торрент  ·   Рейтинг и ограничения



Последний раз редактировалось: aleksey99 (2018-02-10 20:28), всего редактировалось 1 раз

Sharifulla

Корсар

Пост 12-Янв-2018 03:37 (спустя 2 дня 16 часов)

[Q] 

Спасибо автор за труды Лови бочку
[Профиль]  [ЛС] 

D_Ex

Корсар

103

Пост 14-Янв-2018 19:07 (спустя 2 дня 15 часов)

[Q] 

Ну прикольно. А ведь был когда-то давным давно такой же фильм но с Джулией Робертс, и сюжет такой же. Ладно, посмотрим, а там видно будет.
ОК! Посмотрел... начало. На большее не хватило. Полная чушь!
Типичный современный фильм про учёных: халатность, безответственность, малосознательность, недисциплинированность, глупость и т. д.
[Профиль]  [ЛС] 

Mollchun

Корсар

2070

Пост 28-Янв-2018 08:58 (спустя 13 дней)

[Q] 

Хороший фильм. Смысл силен. Мы ни когда не забываем все плохое, что сделали, это остается в нашем сознании навсегда, а вот когда и как вылезет - уже не известно. Здесь стимулом стала кома.
[Профиль]  [ЛС] 

lexaspirit

Пост 05-Фев-2018 00:31 (спустя 7 дней)

[Q] 

Не смотрел старую версию фильма, но эта неплоха. Посмотреть стоит

_________________
-------------------- ----------------------
[Профиль]  [ЛС] 

Пост 09-Фев-2018 16:52 (спустя 4 дня)

Топик был перенесен из форума Новинки (HD|DVD|BD| TV|SAT|PDTV| - Rips) в форум Фильмы 2010 - 2017 г.г.
aleksey99
 

terranova

Штурман

Пост 10-Фев-2018 18:44 (спустя 5 дней)

[Q] 

замечательно, люблю ужасы.
[Профиль]  [ЛС] 

exelero07

Гроза морей

Пост 07-Мар-2018 00:23 (спустя 24 дня)

[Q] 

Начало хорошее, а вот потом.. Разочарован.
[Профиль]  [ЛС] 
Показать сообщения:    
Ответить на тему

Текущее время: Сегодня 10:53

Часовой пояс: GMT + 4



Вы не можете начинать темы
Вы не можете отвечать на сообщения
Вы не можете редактировать свои сообщения
Вы не можете удалять свои сообщения
Вы не можете голосовать в опросах
Вы не можете прикреплять файлы к сообщениям
Вы не можете скачивать файлы

Майнать ▼