Ван Гог. С любовью, Винсент / Loving Vincent (Дорота Кобела / Dorota Kobiela, Хью Уэлшман / Hugh Welchman) [2017, драма, криминал, биография, мультфильм, HDRip] Dub [iTunes]

Ответить на тему
 
Автор
Сообщение

Пост 12-Янв-2018 16:13

[Q] 

aleksey99

--Ван Гог. С любовью, Винсент / Loving Vincent--«The truth is, we cannot speak other than by our paintings»-- Производство: Великобритания, Польша / BreakThru Productions
Год выпуска: 2017 г.
Жанр: драма, криминал, биография, мультфильм
Продолжительность: 01:34:43--Мировая премьера: 12 июня 2017
Российская премьера: 9 ноября 2017, «Ракета Релизинг»--Перевод: Профессиональный (полное дублирование) [iTunes]--Режиссер: Дорота Кобела / Dorota Kobiela, Хью Уэлшман / Hugh Welchman--В ролях: Дуглас Бут, Сирша Ронан, Джером Флинн, Эйдан Тернер, Хелен МакКрори, Холли Эрл, Крис О’Дауд, Элинор Томлинсон, Робин Ходжес, Роберт Гулачик--Описание: Первая в мире полнометражная анимация, каждый кадр которой – расписанное маслом полотно. 800 писем Ван Гога, более 120 его картин и их персонажей поведают о самых значимых людях и событиях в жизни художника, приведших к ее загадочному обрыву.-- --Качество видео:HDRip
Контейнер: AVI
Видео кодек: XviD
Аудио кодек: AC3
Видео: 704x512 (1.38:1), 23.976 fps, XviD build 67 ~1807 kbps avg, 0.21 bit/pixel
Аудио: 48 kHz, AC3 Dolby Digital, 3/2 (L,C,R,l,r) + LFE ch, ~384 kbps
Cубтитры: Отсутствуют .
Общее
Полное имя : H:\Torrent2\Van_Gog_2017_HDRip_iT_by_Dalemake.avi
Формат : AVI
Формат/Информация : Audio Video Interleave
Размер файла : 1,46 Гбайт
Продолжительность : 1 ч. 34 м.
Общий поток : 2201 Кбит/сек
Программа кодирования : VirtualDubMod 1.5.10.3 | www.virtualdub-fr.org || (build 2550/release)
Библиотека кодирования : VirtualDubMod build 2550/release
Видео
Идентификатор : 0
Формат : MPEG-4 Visual
Профиль формата : Advanced Simple@L5
Параметр BVOP формата : 1
Параметр QPel формата : Нет
Параметр GMC формата : Без точки перехода
Параметр матрицы формата : Выборочная
Идентификатор кодека : XVID
Идентификатор кодека/Подсказка : XviD
Продолжительность : 1 ч. 34 м.
Битрейт : 1808 Кбит/сек
Ширина : 704 пикселя
Высота : 512 пикселей
Соотношение сторон : 1,375
Частота кадров : 23,976 кадра/сек
Цветовое пространство : YUV
Субдискретизация насыщенности : 4:2:0
Битовая глубина : 8 бит
Тип развёртки : Прогрессивная
Метод сжатия : С потерями
Бит/(Пиксели*Кадры) : 0.209
Размер потока : 1,20 Гбайт (82%)
Библиотека кодирования : XviD 67
Аудио
Идентификатор : 1
Формат : AC-3
Формат/Информация : Audio Coding 3
Расширение режима : CM (complete main)
Параметр Endianness формата : Big
Идентификатор кодека : 2000
Продолжительность : 1 ч. 34 м.
Вид битрейта : Постоянный
Битрейт : 384 Кбит/сек
Каналы : 6 каналов
Расположение каналов : Front: L C R, Side: L R, LFE
Частота : 48,0 КГц
Битовая глубина : 16 бит
Метод сжатия : С потерями
Размер потока : 260 Мбайт (17%)
Выравнивание : Разделение по промежуткам
Продолжительность промежутка : 42 мс. (1,00 видеокадр)
Время предзагрузки промежутка : 500 мс.
Трейлер
Download / Скачать

Хотите скачать бесплатно? Зарегистрируйтесь на сайте (ссылка на регистрацию). Pirat.ca - самый быстрый торрент трекер в рунете!

Как скачивать  ·   Что такое торрент  ·   Рейтинг и ограничения

Gothaka

Штурман

Пост 13-Янв-2018 13:51 (спустя 21 час)

[Q] 

Артхаузненько 27
[Профиль]  [ЛС] 
Показать сообщения:    
Ответить на тему

Текущее время: Сегодня 17:26

Часовой пояс: GMT + 4



Вы не можете начинать темы
Вы не можете отвечать на сообщения
Вы не можете редактировать свои сообщения
Вы не можете удалять свои сообщения
Вы не можете голосовать в опросах
Вы не можете прикреплять файлы к сообщениям
Вы не можете скачивать файлы

Майнать ▼