Уважаемый Гость!
Вы можете поддержать проект и зарегистрироваться у наших партнеров - онлайн-стратегия MyLands. При регистрации в игре Вы получите код, который сможете активировать после регистрации на pirat.ca и получить 1000 дублонов.

Ваш код:
05aa585945da9b20e143f2fcf2ab1f69aba65ad7
 
     

Пила 8 / Jigsaw (Майкл Спириг, Питер Спириг / Michael Spierig, Peter Spierig) [2017 г., ужасы, триллер, криминал, детектив, WEB-DLRip] Dub [Чистый звук]

Ответить на тему
 
Автор
Сообщение

Пост 13-Янв-2018 10:26

[Q] 

aleksey99

--Пила 8 / Jigsaw--«Are you worthy?»-- Производство: США, Канада / Serendipity Productions, Twisted Pictures, A Bigger Boat
Год выпуска: 2017 г.
Жанр: ужасы, триллер, криминал, детектив
Продолжительность: 01:32:16--Мировая премьера: 26 октября 2017
Российская премьера: 26 октября 2017, «Централ Партнершип»
Цифровой релиз: 16 января 2018, «Централ Партнершип»--Перевод: Профессиональный (полное дублирование) [Чистый звук]--Режиссер: Майкл Спириг, Питер Спириг / Michael Spierig, Peter Spierig--В ролях: Мэтт Пассмор, Тобин Белл, Каллум Кит Ренни, Ханна Андерсон, Кле Беннетт, Лора Вандервурт, Пол Браунштейн, Мандела Ван Пиблз, Бриттани Аллен, Джозиа Блэк--Описание: В городе обнаруживают несколько тел, обладатели которых встретили определенно не лучший конец. Все улики указывают на одного человека: Джона Крамера. Но как это возможно? Человек, известный как Пила, мертв уже более десяти лет. Неужели все-таки нашелся тот, кто рискнул подобрать мантию жестокого маньяка?-- --Качество видео: WEB-DLRip
Контейнер: AVI
Видео кодек: XviD
Аудио кодек: AC3
Видео: 720x304 (2.37:1), 23.976 fps, XviD build 50 ~1727 kbps avg, 0.33 bit/pixel
Аудио: 48 kHz, AC3 Dolby Digital, 2/0 (L,R) ch, ~384 kbps
Cубтитры: Отсутствуют .
Общее
Полное имя : H:\Torrent2\Jigsaw.2O17.D.WEB-DLRip.14OOMB.avi
Формат : AVI
Формат/Информация : Audio Video Interleave
Размер файла : 1,37 Гбайт
Продолжительность : 1 ч. 32 м.
Общий поток : 2121 Кбит/сек
Программа кодирования : VirtualDubMod 1.5.10.2 (build 2540/release)
Библиотека кодирования : VirtualDubMod build 2540/release
Видео
Идентификатор : 0
Формат : MPEG-4 Visual
Профиль формата : Advanced [email protected]
Параметр BVOP формата : 2
Параметр QPel формата : Нет
Параметр GMC формата : Без точки перехода
Параметр матрицы формата : Выборочная
Идентификатор кодека : XVID
Идентификатор кодека/Подсказка : XviD
Продолжительность : 1 ч. 32 м.
Битрейт : 1728 Кбит/сек
Ширина : 720 пикселей
Высота : 304 пикселя
Соотношение сторон : 2,35:1
Частота кадров : 23,976 кадра/сек
Цветовое пространство : YUV
Субдискретизация насыщенности : 4:2:0
Битовая глубина : 8 бит
Тип развёртки : Прогрессивная
Метод сжатия : С потерями
Бит/(Пиксели*Кадры) : 0.329
Размер потока : 1,11 Гбайт (81%)
Библиотека кодирования : XviD 1.2.1 (UTC 2008-12-04)
Аудио
Идентификатор : 1
Формат : AC-3
Формат/Информация : Audio Coding 3
Расширение режима : CM (complete main)
Параметр Endianness формата : Big
Идентификатор кодека : 2000
Продолжительность : 1 ч. 32 м.
Вид битрейта : Постоянный
Битрейт : 384 Кбит/сек
Каналы : 2 канала
Расположение каналов : Front: L R
Частота : 48,0 КГц
Битовая глубина : 16 бит
Метод сжатия : С потерями
Размер потока : 253 Мбайт (18%)
Выравнивание : Разделение по промежуткам
Продолжительность промежутка : 42 мс. (1,00 видеокадр)
Время предзагрузки промежутка : 500 мс.
Трейлер
Download / Скачать

Хотите скачать бесплатно? Зарегистрируйтесь на сайте (ссылка на регистрацию). Pirat.ca - самый быстрый торрент трекер в рунете!

Как скачивать  ·   Что такое торрент  ·   Рейтинг и ограничения



Последний раз редактировалось: aleksey99 (2018-01-16 06:53), всего редактировалось 1 раз

Кристина119

Гроза морей

Пост 14-Янв-2018 00:38 (спустя 14 часов)

[Q] 

Спасибо, забираю Лови бочку
[Профиль]  [ЛС] 

Aleks44

Гроза морей

Пост 14-Янв-2018 13:38 (спустя 13 часов)

[Q] 

Фильм интересный
[Профиль]  [ЛС] 

kosmo72rus

Корсар

Пост 14-Янв-2018 20:57 (спустя 7 часов)

[Q] 

Посмотревшие, по качеству отпишитесь!

_________________
[Профиль]  [ЛС] 

qwers1

Штурман

Пост 14-Янв-2018 21:53 (спустя 55 минут)

[Q] 

Звук хороший.
Добавлено спустя 6 минут 2 секунды:
....и реклама слегка напрягает.
[Профиль]  [ЛС] 

bnm

Морской Волк

Пост 14-Янв-2018 22:14 (спустя 21 минута)

[Q] 

Спасибо!!!
[Профиль]  [ЛС] 

Aleks44

Гроза морей

Пост 15-Янв-2018 12:57 (спустя 14 часов)

[Q] 

816824Посмотревшие, по качеству отпишитесь!
Звук и видео нормального качества
[Профиль]  [ЛС] 

shelby290

Флибустьер

Пост 15-Янв-2018 22:23 (спустя 9 часов)

[Q] 

Фильм хороший, качество тоже!
Реклама присутствует...(
Автору респект!!!
[Профиль]  [ЛС] 

aleksey99 ®

300079

Пост 16-Янв-2018 07:03 (спустя 8 часов)

[Q] 

Пила 8 / Jigsaw (Майкл Спириг, Питер Спириг / Michael Spierig, Peter Spierig) [2017 г., ужасы, триллер, криминал, детектив, WEB-DLRip] Dub [iTunes]

_________________

[Профиль]  [ЛС] 
Показать сообщения:    
Ответить на тему

Текущее время: Сегодня 03:37

Часовой пояс: GMT + 4



Вы не можете начинать темы
Вы не можете отвечать на сообщения
Вы не можете редактировать свои сообщения
Вы не можете удалять свои сообщения
Вы не можете голосовать в опросах
Вы не можете прикреплять файлы к сообщениям
Вы не можете скачивать файлы

▼ Вниз