Уважаемый Гость!
Вы можете поддержать проект и зарегистрироваться у наших партнеров - онлайн-стратегия MyLands. При регистрации в игре Вы получите код, который сможете активировать после регистрации на pirat.ca и получить 1000 дублонов.

Ваш код:
63ddbc099afdde4bfcb4e610e80c6e8b9375c65c
 
     

Акты насилия / Acts of Violence (Бретт Доноху / Brett Donowho) [2018 г., боевик, драма, WEB-DLRip] MVO [@[email protected]]

Ответить на тему
 
Автор
Сообщение

Пост 13-Янв-2018 14:58

[Q] 

aleksey99

--Акты насилия / Acts of Violence-- Производство: Канада, США / Colecar Productions
Год выпуска: 2018 г.
Жанр: боевик, драма
Продолжительность: 01:27:50--Мировая премьера: 7 июня 2018--Перевод: многоголосый, закадровый [@[email protected]]--Режиссер: Бретт Доноху / Brett Donowho--В ролях: Брюс Уиллис, Коул Хаузер, Шон Эшмор, Эштон Холмс, Мелисса Болона, Шон Броснан, София Буш, Майк Эппс, Тиффани Броувер, Дженна Б. Келли--Описание: Чтобы спасти свою невесту, которая попала в лапы торговцев людьми Роман должен вспомнить свои военные навыки и объединить усилия с бывшими сослуживцами и жестким полицейским, расследующим подобные дела.-- --Качество видео: WEB-DLRip
Контейнер: AVI
Видео кодек: XviD
Аудио кодек: AC3
Видео: 720x304 (2.37:1), 23.976 fps, XviD build 50 ~1834 kbps avg, 0.35 bit/pixel
Аудио: 48 kHz, AC3 Dolby Digital, 2/0 (L,R) ch, ~384 kbps
Cубтитры: отсутствуют.
Общее
Полное имя : H:\Torrent2\Acts.of.Violence.2018.P.WEB-DLRip.14OOMB.avi
Формат : AVI
Формат/Информация : Audio Video Interleave
Размер файла : 1,37 Гбайт
Продолжительность : 1 ч. 27 м.
Общий поток : 2228 Кбит/сек
Программа кодирования : VirtualDubMod 1.5.10.2 (build 2540/release)
Библиотека кодирования : VirtualDubMod build 2540/release
Видео
Идентификатор : 0
Формат : MPEG-4 Visual
Профиль формата : Advanced [email protected]
Параметр BVOP формата : 2
Параметр QPel формата : Нет
Параметр GMC формата : Без точки перехода
Параметр матрицы формата : Default (MPEG)
Идентификатор кодека : XVID
Идентификатор кодека/Подсказка : XviD
Продолжительность : 1 ч. 27 м.
Битрейт : 1835 Кбит/сек
Ширина : 720 пикселей
Высота : 304 пикселя
Соотношение сторон : 2,35:1
Частота кадров : 23,976 кадра/сек
Цветовое пространство : YUV
Субдискретизация насыщенности : 4:2:0
Битовая глубина : 8 бит
Тип развёртки : Прогрессивная
Метод сжатия : С потерями
Бит/(Пиксели*Кадры) : 0.350
Размер потока : 1,13 Гбайт (82%)
Библиотека кодирования : XviD 1.2.1 (UTC 2008-12-04)
Аудио
Идентификатор : 1
Формат : AC-3
Формат/Информация : Audio Coding 3
Расширение режима : CM (complete main)
Параметр Endianness формата : Big
Идентификатор кодека : 2000
Продолжительность : 1 ч. 27 м.
Вид битрейта : Постоянный
Битрейт : 384 Кбит/сек
Каналы : 2 канала
Расположение каналов : Front: L R
Частота : 48,0 КГц
Битовая глубина : 16 бит
Метод сжатия : С потерями
Размер потока : 241 Мбайт (17%)
Выравнивание : Разделение по промежуткам
Продолжительность промежутка : 42 мс. (1,00 видеокадр)
Время предзагрузки промежутка : 500 мс.
Трейлер
Download / Скачать

Хотите скачать бесплатно? Зарегистрируйтесь на сайте (ссылка на регистрацию). Pirat.ca - самый быстрый торрент трекер в рунете!

Как скачивать  ·   Что такое торрент  ·   Рейтинг и ограничения

Кристина119

Гроза морей

Пост 14-Янв-2018 00:35 (спустя 9 часов)

[Q] 

Старина Брюс Лови бочку
[Профиль]  [ЛС] 

Ursanu

Лоцман

Пост 15-Янв-2018 00:40 (спустя 1 день)

[Q] 

Спасибо Большое !!!!!!!!!! aa az

_________________
зубник
[Профиль]  [ЛС] 

msss

Корсар

Пост 16-Янв-2018 19:22 (спустя 1 день 18 часов)

[Q] 

Сюжет высосан из пальца с ляпами, тем не менее чутка затягивает сопереживать. Смотреть только от совсем нечего делать.
[Профиль]  [ЛС] 

tumparov

Морской Волк

Пост 22-Янв-2018 16:18 (спустя 5 дней)

[Q] 

Я вот не пойму, у Брюса деньги кончились_? или он от не фиг делать, снимается во всяком ширпотребе, ведь в хороших, можно сказать культовых фильмах снимался, а последние время шлак за шлаком, минут 20ть хватило, удалил.
[Профиль]  [ЛС] 
Показать сообщения:    
Ответить на тему

Текущее время: Сегодня 20:32

Часовой пояс: GMT + 4



Вы не можете начинать темы
Вы не можете отвечать на сообщения
Вы не можете редактировать свои сообщения
Вы не можете удалять свои сообщения
Вы не можете голосовать в опросах
Вы не можете прикреплять файлы к сообщениям
Вы не можете скачивать файлы

▼ Вниз