Бойся своих желаний / Wish Upon (Джон Р. Леонетти / John R. Leonetti) [2017 г., ужасы, фэнтези, триллер, HDRip] Dub [Звук с TS]

Ответить на тему
 
Автор
Сообщение

Пост 13-Янв-2018 15:47

[Q] 

aleksey99

--Бойся своих желаний / Wish Upon--«Твои мысли опаснее, чем ты думаешь»-- Производство: США, Канада
Год выпуска: 2017 г.
Жанр: ужасы, фэнтези, триллер
Продолжительность: 01:30:13--Мировая премьера: 7 июля 2017
Российская премьера: 11 января 2018, «Экспонента»--Перевод: Профессиональный (полное дублирование) [Звук с TS]--Режиссер: Джон Р. Леонетти / John R. Leonetti--В ролях: Джои Кинг, Райан Филипп, Ли Ги-хон, Митчелл Слаггерт, Шеннон Пёрсер, Сидни Парк, Элизабет Рём, Жозефин Лангфорд, Александр Нунез, Даниэла Барбоза--Описание: Тихая неудачница Клэр получает в подарок от отца старинную шкатулку. К ее удивлению оказывается, что шкатулка умеет исполнять желания. Теперь-то она расквитается со всеми, кто над ней смеялся. Желания исполняются, но не совсем так, как задумывала Клэр, и с каждым новым желанием последствия становятся все страшнее. Какую еще плату попросит шкатулка взамен, и что за древнее зло скрывается в ней?-- --Качество видео: HDRip
Контейнер: AVI
Видео кодек: XviD
Аудио кодек: AC3
Видео: 720x304 (2.37:1), 23.976 fps, XviD build 50 ~1775 kbps avg, 0.34 bit/pixel
Аудио: 48 kHz, AC3 Dolby Digital, 2/0 (L,R) ch, ~384 kbps
Cубтитры: Отсутствуют .
Общее
Полное имя : H:\Torrent2\Wish.Upon.2O17.Dt.HDRip.14OOMB.avi
Формат : AVI
Формат/Информация : Audio Video Interleave
Размер файла : 1,37 Гбайт
Продолжительность : 1 ч. 30 м.
Общий поток : 2169 Кбит/сек
Программа кодирования : VirtualDubMod 1.5.10.2 (build 2540/release)
Библиотека кодирования : VirtualDubMod build 2540/release
Видео
Идентификатор : 0
Формат : MPEG-4 Visual
Профиль формата : Advanced Simple@L5
Параметр BVOP формата : 2
Параметр QPel формата : Нет
Параметр GMC формата : Без точки перехода
Параметр матрицы формата : Выборочная
Идентификатор кодека : XVID
Идентификатор кодека/Подсказка : XviD
Продолжительность : 1 ч. 30 м.
Битрейт : 1776 Кбит/сек
Ширина : 720 пикселей
Высота : 304 пикселя
Соотношение сторон : 2,35:1
Частота кадров : 23,976 кадра/сек
Цветовое пространство : YUV
Субдискретизация насыщенности : 4:2:0
Битовая глубина : 8 бит
Тип развёртки : Прогрессивная
Метод сжатия : С потерями
Бит/(Пиксели*Кадры) : 0.338
Размер потока : 1,12 Гбайт (82%)
Библиотека кодирования : XviD 1.2.1 (UTC 2008-12-04)
Аудио
Идентификатор : 1
Формат : AC-3
Формат/Информация : Audio Coding 3
Расширение режима : CM (complete main)
Параметр Endianness формата : Big
Идентификатор кодека : 2000
Продолжительность : 1 ч. 30 м.
Вид битрейта : Постоянный
Битрейт : 384 Кбит/сек
Каналы : 2 канала
Расположение каналов : Front: L R
Частота : 48,0 КГц
Битовая глубина : 16 бит
Метод сжатия : С потерями
Размер потока : 248 Мбайт (18%)
Выравнивание : Разделение по промежуткам
Продолжительность промежутка : 42 мс. (1,00 видеокадр)
Время предзагрузки промежутка : 500 мс.
Трейлер
Download / Скачать

Хотите скачать бесплатно? Зарегистрируйтесь на сайте (ссылка на регистрацию). Pirat.ca - самый быстрый торрент трекер в рунете!

Как скачивать  ·   Что такое торрент  ·   Рейтинг и ограничения

Pirat177

Флибустьер

Пост 14-Янв-2018 15:47 (спустя 1 день)

[Q] 

посмотрим... на досуге Спасибо!!!
[Профиль]  [ЛС] 

wuzap00x

Матрос

Пост 14-Янв-2018 19:25 (спустя 3 часа)

[Q] 

Глянул, в целом норм, под попрокн пойдет :), вот только со звуком у меня какие-то проблемы были.
[Профиль]  [ЛС] 

Rei1

Легенда

Пост 21-Янв-2018 15:20 (спустя 6 дней)

[Q] 

1 - плохой звук
2 - куча рекламы
3 - унылый сюжет
4 - игра актеров
[Профиль]  [ЛС] 
Показать сообщения:    
Ответить на тему

Текущее время: Сегодня 00:53

Часовой пояс: GMT + 4



Вы не можете начинать темы
Вы не можете отвечать на сообщения
Вы не можете редактировать свои сообщения
Вы не можете удалять свои сообщения
Вы не можете голосовать в опросах
Вы не можете прикреплять файлы к сообщениям
Вы не можете скачивать файлы

Майнать ▼